<?xml version="1.0" standalone="no"?>
<!DOCTYPE svg PUBLIC "-//W3C//DTD SVG 1.1//EN" "http://www.w3.org/Graphics/SVG/1.1/DTD/svg11.dtd" >
<svg xmlns="http://www.w3.org/2000/svg">
<metadata></metadata>
<defs>
<font id="notokr-regularregular" horiz-adv-x="920" >
<font-face units-per-em="1000" ascent="800" descent="-200" />
<missing-glyph horiz-adv-x="224" />
<glyph unicode=" "  horiz-adv-x="224" />
<glyph unicode="&#x09;" horiz-adv-x="224" />
<glyph unicode="&#xa0;" horiz-adv-x="224" />
<glyph unicode="!" horiz-adv-x="323" d="M130 221l-12 424l-3 104h93l-3 -104l-12 -424h-63zM161 -13q-28 0 -47 19.5t-19 49.5t19.5 50.5t46.5 20.5q28 0 47 -20t19 -51q0 -30 -19 -49.5t-47 -19.5z" />
<glyph unicode="&#x22;" horiz-adv-x="475" d="M110 483l-18 185l-2 103h96l-2 -103l-18 -185h-56zM307 483l-18 185l-3 103h97l-2 -103l-19 -185h-55z" />
<glyph unicode="#" horiz-adv-x="555" d="M101 0l27 228h-88v64h96l21 166h-95v63h102l26 205h59l-25 -205h148l27 205h58l-25 -205h89v-63h-96l-21 -166h95v-64h-103l-27 -228h-60l27 228h-148l-28 -228h-59zM196 292h148l21 166h-149z" />
<glyph unicode="$" horiz-adv-x="555" d="M473 641l-49 -54q-34 33 -63.5 48t-72.5 15q-52 0 -82.5 -29.5t-30.5 -78.5q0 -33 17.5 -58.5t45 -42.5t61 -32.5t66.5 -34.5t60.5 -42.5t45 -61t17.5 -86.5q0 -79 -46.5 -131t-126.5 -63v-113h-66v111q-109 11 -191 86l43 62q86 -73 172 -73q61 0 93.5 30.5t32.5 84.5 q0 42 -23 74.5t-58 51t-75.5 41t-75.5 44t-58 60t-23 89.5q0 74 45 124t118 61v113h66v-111q87 -10 158 -84z" />
<glyph unicode="%" horiz-adv-x="921" d="M205 284q-76 0 -121 61.5t-45 171.5q0 109 45 169.5t121 60.5q77 0 122 -60.5t45 -169.5q0 -110 -45 -171.5t-122 -61.5zM205 341q45 0 71.5 45.5t26.5 130.5t-26.5 129.5t-71.5 44.5q-44 0 -70.5 -44.5t-26.5 -129.5t26.5 -130.5t70.5 -45.5zM227 -13l404 760h62 l-405 -760h-61zM716 -13q-76 0 -121.5 61.5t-45.5 170.5t45.5 169.5t121.5 60.5t121 -60.5t45 -169.5q0 -110 -45 -171t-121 -61zM716 43q44 0 70.5 45.5t26.5 130.5t-26.5 129.5t-70.5 44.5q-45 0 -71.5 -44.5t-26.5 -129.5t26.5 -130.5t71.5 -45.5z" />
<glyph unicode="&#x26;" horiz-adv-x="680" d="M125 195q0 -60 41.5 -97.5t103.5 -37.5q71 0 140 59q-115 101 -193 219q-92 -74 -92 -143zM211 575q0 -58 35 -130q61 41 93 76t32 79q0 35 -17.5 58t-52.5 23q-41 0 -65.5 -30t-24.5 -76zM663 63l-25 -76q-80 22 -167 84q-92 -84 -212 -84q-99 0 -161 57t-62 146 q0 67 38 116t106 96q-48 94 -48 171q0 75 47 124.5t122 49.5q67 0 105.5 -40t38.5 -105q0 -34 -13 -64.5t-41 -59.5t-49.5 -46.5t-61.5 -46.5q72 -114 186 -207q69 90 104 217h84q-44 -152 -128 -262q75 -53 137 -70z" />
<glyph unicode="'" horiz-adv-x="278" d="M110 483l-18 185l-2 103h96l-2 -103l-18 -185h-56z" />
<glyph unicode="(" horiz-adv-x="338" d="M239 -197q-147 240 -147 508q0 269 147 507l57 -26q-128 -210 -128 -481q0 -272 128 -481z" />
<glyph unicode=")" horiz-adv-x="338" d="M99 -197l-56 27q128 211 128 481q0 268 -128 481l56 26q148 -237 148 -507q0 -269 -148 -508z" />
<glyph unicode="*" horiz-adv-x="467" d="M154 471l-44 32l63 104l-109 45l18 51l114 -28l10 121h54l10 -120l114 27l17 -51l-109 -45l64 -104l-44 -32l-79 95z" />
<glyph unicode="+" horiz-adv-x="555" d="M241 116v219h-203v68h203v218h73v-218h203v-68h-203v-219h-73z" />
<glyph unicode="," horiz-adv-x="278" d="M75 -190l-22 54q98 43 100 136q-4 -1 -11 -1q-28 0 -47.5 17t-19.5 47q0 28 20 46t49 18q36 0 56.5 -29t20.5 -79q0 -71 -39 -125.5t-107 -83.5z" />
<glyph unicode="-" horiz-adv-x="347" d="M46 245v70h256v-70h-256z" />
<glyph unicode="." horiz-adv-x="278" d="M139 -13q-28 0 -47 19.5t-19 49.5t19.5 50.5t46.5 20.5t46.5 -20.5t19.5 -50.5t-19 -49.5t-47 -19.5z" />
<glyph unicode="/" horiz-adv-x="392" d="M11 -179l300 972h66l-299 -972h-67z" />
<glyph unicode="0" horiz-adv-x="555" d="M278 -13q-107 0 -168 97.5t-61 284.5t60.5 282.5t168.5 95.5q107 0 167.5 -96t60.5 -282q0 -187 -60.5 -284.5t-167.5 -97.5zM278 60q65 0 102 76.5t37 232.5q0 155 -37 229.5t-102 74.5q-66 0 -103 -74.5t-37 -229.5q0 -157 37 -233t103 -76z" />
<glyph unicode="1" horiz-adv-x="555" d="M88 0v76h163v547h-130v58q91 17 152 52h70v-657h147v-76h-402z" />
<glyph unicode="2" horiz-adv-x="555" d="M44 0v54q174 152 255 265.5t81 207.5q0 66 -34.5 105.5t-100.5 39.5q-81 0 -152 -85l-53 52q49 53 99.5 80.5t116.5 27.5q98 0 155.5 -59t57.5 -158q0 -103 -73.5 -214t-213.5 -244q89 7 120 7h203v-79h-461z" />
<glyph unicode="3" horiz-adv-x="555" d="M264 -13q-143 0 -235 100l46 60q80 -84 182 -84q66 0 107.5 37t41.5 99q0 147 -228 147v70q203 0 203 140q0 53 -33.5 84.5t-90.5 33.5q-82 -3 -152 -73l-49 58q95 88 205 88q95 0 154 -49t59 -135q0 -128 -131 -177v-4q68 -16 112 -65t44 -121q0 -96 -67 -152.5 t-168 -56.5z" />
<glyph unicode="4" horiz-adv-x="555" d="M115 275h224v225q0 19 6 133h-4q-24 -48 -59 -108zM523 275v-73h-97v-202h-87v202h-319v60l305 471h101v-458h97z" />
<glyph unicode="5" horiz-adv-x="555" d="M261 -13q-136 0 -233 97l45 60q81 -81 180 -81q66 0 111 47.5t45 125.5t-41 122.5t-111 44.5q-57 0 -122 -43l-49 30l23 343h357v-78h-277l-18 -212q52 29 109 29q97 0 159 -59t62 -174q0 -116 -71 -184t-169 -68z" />
<glyph unicode="6" horiz-adv-x="555" d="M301 58q53 0 88.5 46.5t35.5 120.5q0 76 -33.5 119t-98.5 43q-84 0 -150 -94q8 -114 48.5 -174.5t109.5 -60.5zM498 672l-50 -57q-46 56 -118 56q-82 0 -134 -72.5t-55 -232.5q34 41 78.5 65t88.5 24q95 0 149 -59t54 -171q0 -104 -61 -171t-149 -67q-110 0 -177.5 93.5 t-67.5 269.5q0 202 77 299.5t194 97.5q101 0 171 -75z" />
<glyph unicode="7" horiz-adv-x="555" d="M198 0q9 212 54.5 359.5t151.5 295.5h-355v78h459v-55q-122 -157 -164 -301t-51 -377h-95z" />
<glyph unicode="8" horiz-adv-x="555" d="M279 -13q-101 0 -167.5 55t-66.5 140q0 68 39 119.5t96 82.5v5q-99 68 -99 169q0 83 57 134.5t144 51.5q92 0 146.5 -53.5t54.5 -139.5q0 -53 -29.5 -100t-68.5 -77v-5q124 -72 124 -192q0 -81 -64 -135.5t-166 -54.5zM329 398q76 67 76 148q0 56 -34 93.5t-91 37.5 q-51 0 -83.5 -33t-32.5 -86q0 -59 42.5 -93.5t122.5 -66.5zM281 55q63 0 102 34.5t39 89.5q0 35 -14 62t-46 48.5t-57.5 34t-76.5 32.5q-100 -64 -100 -166q0 -58 43.5 -96.5t109.5 -38.5z" />
<glyph unicode="9" horiz-adv-x="555" d="M261 346q84 0 153 98q-7 113 -48 172t-112 59q-53 0 -88.5 -46t-35.5 -120q0 -76 33.5 -119.5t97.5 -43.5zM58 62l50 57q50 -56 123 -56q78 0 128.5 73t55.5 233q-34 -42 -78.5 -66.5t-90.5 -24.5q-94 0 -148 59.5t-54 171.5q0 104 61 171t149 67q110 0 178 -90t68 -259 q0 -107 -22 -188.5t-60 -129t-84 -70.5t-100 -23q-104 0 -176 75z" />
<glyph unicode=":" horiz-adv-x="278" d="M139 390q-27 0 -46.5 19.5t-19.5 49.5q0 31 19 51t47 20t47 -20t19 -51q0 -30 -19.5 -49.5t-46.5 -19.5zM139 -13q-28 0 -47 19.5t-19 49.5t19.5 50.5t46.5 20.5t46.5 -20.5t19.5 -50.5t-19 -49.5t-47 -19.5z" />
<glyph unicode=";" horiz-adv-x="278" d="M139 390q-27 0 -46.5 19.5t-19.5 49.5q0 31 19 51t47 20t47 -20t19 -51q0 -30 -19.5 -49.5t-46.5 -19.5zM75 -190l-22 54q98 43 100 136q-4 -1 -11 -1q-28 0 -47.5 17t-19.5 47q0 28 20 46t49 18q36 0 56.5 -29t20.5 -79q0 -71 -39 -125.5t-107 -83.5z" />
<glyph unicode="&#x3c;" horiz-adv-x="555" d="M517 146l-479 188v73l479 188v-79l-236 -87l-150 -56v-4l150 -56l236 -87v-80z" />
<glyph unicode="=" horiz-adv-x="555" d="M38 454v68h479v-68h-479zM38 215v68h479v-68h-479z" />
<glyph unicode="&#x3e;" horiz-adv-x="555" d="M38 146v80l236 87l150 56v4l-150 56l-236 87v79l479 -188v-73z" />
<glyph unicode="?" horiz-adv-x="474" d="M178 221q-6 48 7.5 91.5t37 76t48.5 62t43 62.5t18 65q0 47 -28.5 77.5t-79.5 30.5q-73 0 -129 -64l-52 48q80 92 191 92q85 0 136 -48.5t51 -129.5q0 -40 -18.5 -78t-44 -68.5t-50 -62t-39.5 -71.5t-10 -83h-81zM221 -13q-28 0 -47 19.5t-19 49.5t19.5 50.5t46.5 20.5 q28 0 47.5 -20.5t19.5 -50.5t-19.5 -49.5t-47.5 -19.5z" />
<glyph unicode="@" horiz-adv-x="946" d="M450 -173q-171 0 -282.5 106t-111.5 294q0 109 38 203t101.5 157t148.5 99t178 36q168 0 267.5 -102t99.5 -268q0 -136 -69.5 -216.5t-153.5 -80.5q-47 0 -78.5 22t-36.5 63h-3q-64 -77 -136 -77q-59 0 -96.5 42.5t-37.5 116.5q0 96 61 177.5t154 81.5q59 0 89 -55h2 l13 46h60l-44 -223q-31 -131 61 -131q58 0 104.5 63.5t46.5 166.5q0 140 -81 226.5t-229 86.5q-75 0 -145 -31t-125 -86t-88 -137t-33 -177q0 -160 93 -251t239 -91q96 0 182 50l24 -54q-95 -57 -212 -57zM430 126q48 0 103 66l32 178q-29 47 -72 47q-62 0 -102 -60.5 t-40 -129.5q0 -51 21.5 -76t57.5 -25z" />
<glyph unicode="A" horiz-adv-x="607" d="M191 298h222l-35 112q-30 93 -74 248h-4q-27 -102 -73 -248zM506 0l-70 224h-268l-71 -224h-94l249 733h103l249 -733h-98z" />
<glyph unicode="B" horiz-adv-x="657" d="M100 0v733h218q252 0 252 -179q0 -56 -28.5 -99.5t-79.5 -59.5v-5q69 -13 109.5 -58t40.5 -117q0 -105 -75.5 -160t-202.5 -55h-234zM193 421h109q177 0 177 121q0 63 -42.5 90.5t-130.5 27.5h-113v-239zM193 74h128q200 0 200 144q0 132 -200 132h-128v-276z" />
<glyph unicode="C" horiz-adv-x="638" d="M377 -13q-140 0 -229.5 102t-89.5 277q0 174 91.5 277.5t233.5 103.5q120 0 201 -91l-50 -60q-65 70 -150 70q-105 0 -168 -80.5t-63 -216.5q0 -139 61.5 -220t166.5 -81q94 0 170 82l51 -58q-91 -105 -225 -105z" />
<glyph unicode="D" horiz-adv-x="687" d="M100 0v733h184q168 0 257 -94.5t89 -269.5t-88.5 -272t-253.5 -97h-188zM193 76h83q128 0 193 76t65 217t-65 215t-193 74h-83v-582z" />
<glyph unicode="E" horiz-adv-x="588" d="M100 0v733h423v-78h-330v-230h278v-79h-278v-267h341v-79h-434z" />
<glyph unicode="F" horiz-adv-x="552" d="M100 0v733h423v-78h-330v-248h280v-78h-280v-329h-93z" />
<glyph unicode="G" horiz-adv-x="689" d="M388 -13q-147 0 -238.5 101.5t-91.5 277.5q0 175 94 278t242 103q126 0 211 -91l-50 -60q-66 70 -159 70q-111 0 -177 -80t-66 -217q0 -140 64 -220.5t180 -80.5q87 0 133 43v192h-155v77h240v-308q-82 -85 -227 -85z" />
<glyph unicode="H" horiz-adv-x="728" d="M100 0v733h93v-307h342v307h92v-733h-92v346h-342v-346h-93z" />
<glyph unicode="I" horiz-adv-x="293" d="M100 0v733h93v-733h-93z" />
<glyph unicode="J" horiz-adv-x="536" d="M237 -13q-136 0 -202 116l66 47q47 -82 127 -82q60 0 89 37t29 119v509h92v-518q0 -102 -49.5 -165t-151.5 -63z" />
<glyph unicode="K" horiz-adv-x="646" d="M100 0v733h93v-368h3l306 368h104l-229 -279l265 -454h-104l-219 382l-126 -150v-232h-93z" />
<glyph unicode="L" horiz-adv-x="542" d="M100 0v733h93v-654h320v-79h-413z" />
<glyph unicode="M" horiz-adv-x="812" d="M100 0v733h112l141 -392q34 -102 52 -153h5q8 25 24.5 76.5t25.5 76.5l140 392h112v-733h-87v406q0 62 12 216h-4l-58 -167l-139 -381h-62l-139 381l-58 167h-4q11 -176 11 -216v-406h-84z" />
<glyph unicode="N" horiz-adv-x="722" d="M100 0v733h96l267 -462l78 -151h5q-12 178 -12 232v381h88v-733h-95l-267 463l-79 151h-4q11 -203 11 -229v-385h-88z" />
<glyph unicode="O" horiz-adv-x="742" d="M371 -13q-140 0 -226.5 104t-86.5 278t86.5 276t226.5 102t226.5 -102t86.5 -276t-86.5 -278t-226.5 -104zM371 68q99 0 158.5 82t59.5 219t-59.5 217t-158.5 80q-100 0 -159 -80t-59 -217t59.5 -219t158.5 -82z" />
<glyph unicode="P" horiz-adv-x="632" d="M100 0v733h209q275 0 275 -215q0 -113 -72.5 -170t-197.5 -57h-121v-291h-93zM193 366h109q97 0 143.5 37t46.5 115q0 77 -47 108.5t-147 31.5h-105v-292z" />
<glyph unicode="Q" horiz-adv-x="742" d="M153 369q0 -140 59.5 -223t158.5 -83t158.5 83t59.5 223q0 137 -59.5 217t-158.5 80q-100 0 -159 -80t-59 -217zM682 -96l18 -72q-44 -16 -105 -16q-98 0 -167.5 47.5t-101.5 126.5q-122 17 -195 118.5t-73 260.5q0 174 86.5 276t226.5 102t226.5 -102t86.5 -276 q0 -156 -70.5 -256.5t-188.5 -121.5q50 -98 180 -98q42 0 77 11z" />
<glyph unicode="R" horiz-adv-x="635" d="M193 658v-272h123q178 0 178 141q0 70 -44 100.5t-134 30.5h-123zM608 0h-105l-178 311h-132v-311h-93v733h230q256 0 256 -206q0 -83 -44 -135t-122 -71z" />
<glyph unicode="S" horiz-adv-x="597" d="M304 -13q-153 0 -257 109l55 63q88 -91 203 -91q71 0 112.5 32.5t41.5 87.5q0 27 -8 47t-28.5 35.5t-36.5 24t-49 23.5l-106 46q-149 64 -149 188q0 85 65.5 140t165.5 55q128 0 216 -91l-49 -59q-74 69 -167 69q-62 0 -99.5 -29.5t-37.5 -78.5q0 -20 8 -37.5t17.5 -29 t29 -23t31.5 -17t35 -15.5l105 -45q73 -32 112 -76t39 -120q0 -89 -68.5 -148.5t-180.5 -59.5z" />
<glyph unicode="T" horiz-adv-x="599" d="M253 0v655h-222v78h537v-78h-222v-655h-93z" />
<glyph unicode="U" horiz-adv-x="721" d="M360 -13q-121 0 -192 74.5t-71 241.5v430h93v-433q0 -232 170 -232q175 0 175 232v433h89v-430q0 -167 -71 -241.5t-193 -74.5z" />
<glyph unicode="V" horiz-adv-x="575" d="M235 0l-234 733h97l119 -397q9 -31 32 -112t39 -130h4q15 47 37.5 126.5t33.5 115.5l118 397h94l-233 -733h-107z" />
<glyph unicode="W" horiz-adv-x="878" d="M181 0l-156 733h96l77 -399q7 -40 21.5 -119t21.5 -118h4q17 79 53 237l101 399h84l103 -399q21 -90 52 -237h5q21 120 42 237l77 399h89l-152 -733h-111l-111 442q-5 22 -36 167h-4q-5 -24 -17.5 -79.5t-19.5 -87.5l-109 -442h-110z" />
<glyph unicode="X" horiz-adv-x="573" d="M17 0l214 379l-200 354h102l100 -187q8 -14 26.5 -49t31.5 -58h4q42 87 52 107l98 187h97l-200 -359l214 -374h-102l-108 198q-41 77 -63 118h-4q-31 -65 -59 -118l-106 -198h-97z" />
<glyph unicode="Y" horiz-adv-x="531" d="M219 0v285l-220 448h99l94 -207q57 -129 72 -160h4q57 120 73 160l95 207h96l-220 -448v-285h-93z" />
<glyph unicode="Z" horiz-adv-x="603" d="M50 0v55l387 600h-352v78h466v-54l-387 -600h391v-79h-505z" />
<glyph unicode="[" horiz-adv-x="338" d="M105 -170v961h199v-51h-130v-858h130v-52h-199z" />
<glyph unicode="\" horiz-adv-x="392" d="M314 -179l-299 972h66l299 -972h-66z" />
<glyph unicode="]" horiz-adv-x="338" d="M34 -170v52h130v858h-130v51h199v-961h-199z" />
<glyph unicode="^" horiz-adv-x="555" d="M67 317l170 432h81l170 -432h-80l-74 198l-54 149h-5l-55 -149l-73 -198h-80z" />
<glyph unicode="_" horiz-adv-x="559" d="M13 -140v61h532v-61h-532z" />
<glyph unicode="`" horiz-adv-x="606" d="M319 641l-175 170l64 61l158 -186z" />
<glyph unicode="a" horiz-adv-x="564" d="M217 -13q-70 0 -114.5 41t-44.5 113q0 88 79.5 135.5t254.5 67.5q0 137 -112 137q-77 0 -163 -58l-36 63q111 71 214 71q96 0 142 -59t46 -164v-334h-75l-8 65h-3q-94 -78 -180 -78zM243 60q68 0 149 72v152q-133 -16 -189 -49t-56 -88q0 -44 26.5 -65.5t69.5 -21.5z" />
<glyph unicode="b" horiz-adv-x="618" d="M331 -13q-80 0 -155 69h-3l-8 -56h-73v796h91v-218l-3 -98q88 77 170 77q104 0 160.5 -74.5t56.5 -201.5q0 -135 -69 -214.5t-167 -79.5zM316 63q69 0 112.5 58.5t43.5 157.5q0 201 -143 201q-66 0 -146 -75v-285q65 -57 133 -57z" />
<glyph unicode="c" horiz-adv-x="509" d="M306 -13q-111 0 -183 76t-72 208q0 131 76.5 208.5t185.5 77.5q86 0 159 -64l-47 -61q-54 49 -109 49q-74 0 -122 -58.5t-48 -151.5q0 -94 46.5 -151t121.5 -57q69 0 128 54l39 -61q-75 -69 -175 -69z" />
<glyph unicode="d" horiz-adv-x="620" d="M277 -13q-103 0 -163.5 75t-60.5 209q0 128 69 207t166 79q45 0 79 -15.5t74 -48.5l-5 94v209h91v-796h-74l-9 64h-2q-79 -77 -165 -77zM297 63q71 0 139 75v285q-64 57 -132 57q-67 0 -112 -58t-45 -150q0 -99 39 -154t111 -55z" />
<glyph unicode="e" horiz-adv-x="554" d="M311 -13q-112 0 -186 77t-74 207q0 127 73 206.5t172 79.5q102 0 159 -68.5t57 -186.5q0 -26 -4 -52h-366q4 -87 53.5 -138.5t126.5 -51.5q72 0 136 43l33 -60q-87 -56 -180 -56zM141 315h291q0 82 -35.5 125.5t-99.5 43.5q-60 0 -104 -45.5t-52 -123.5z" />
<glyph unicode="f" horiz-adv-x="325" d="M356 791l-20 -69q-31 14 -61 14q-77 0 -77 -107v-86h115v-74h-115v-469h-91v469h-74v69l74 5v87q0 85 39.5 132t118.5 47q48 0 91 -18z" />
<glyph unicode="g" horiz-adv-x="563" d="M275 -250q-102 0 -163.5 38.5t-61.5 107.5q0 71 81 123v4q-50 29 -50 89q0 57 61 101v4q-71 57 -71 146q0 87 59.5 140.5t144.5 53.5q38 0 76 -14h189v-70h-111q44 -42 44 -112q0 -85 -56.5 -137t-141.5 -52q-43 0 -81 19q-35 -30 -35 -65q0 -59 95 -59h106 q189 0 189 -129q0 -78 -76 -133t-198 -55zM275 234q48 0 81.5 35.5t33.5 93.5t-33 92.5t-82 34.5q-50 0 -83 -34.5t-33 -92.5t33.5 -93.5t82.5 -35.5zM288 -188q75 0 124 33.5t49 78.5q0 36 -27.5 51.5t-83.5 15.5h-94q-34 0 -70 9q-56 -40 -56 -92q0 -44 42 -70t116 -26z " />
<glyph unicode="h" horiz-adv-x="607" d="M92 0v796h91v-218l-3 -112q91 91 180 91q166 0 166 -213v-344h-91v332q0 76 -24.5 110.5t-78.5 34.5q-40 0 -72 -19t-77 -64v-394h-91z" />
<glyph unicode="i" horiz-adv-x="275" d="M92 0v543h91v-543h-91zM138 655q-27 0 -45 17t-18 42q0 27 17.5 43t45.5 16t45.5 -16t17.5 -43q0 -25 -18 -42t-45 -17z" />
<glyph unicode="j" horiz-adv-x="275" d="M36 -243q-42 0 -80 14l18 70q28 -10 51 -10q39 0 53.5 26.5t14.5 80.5v605h91v-605q0 -181 -148 -181zM139 655q-27 0 -45 17t-18 42q0 27 17.5 43t45.5 16q27 0 45 -16t18 -43q0 -25 -18.5 -42t-44.5 -17z" />
<glyph unicode="k" horiz-adv-x="552" d="M92 0v796h90v-540h2l233 287h101l-182 -218l206 -325h-99l-159 262l-102 -119v-143h-90z" />
<glyph unicode="l" horiz-adv-x="285" d="M188 -13q-96 0 -96 121v688h91v-694q0 -39 26 -39q9 0 19 2l13 -70q-21 -8 -53 -8z" />
<glyph unicode="m" horiz-adv-x="926" d="M92 0v543h75l8 -79h3q84 93 169 93q114 0 150 -104q95 104 179 104q165 0 165 -213v-344h-91v332q0 76 -24.5 110.5t-76.5 34.5q-61 0 -137 -83v-394h-91v332q0 76 -24.5 110.5t-76.5 34.5q-63 0 -137 -83v-394h-91z" />
<glyph unicode="n" horiz-adv-x="611" d="M92 0v543h75l8 -78h3q94 92 182 92q166 0 166 -213v-344h-91v332q0 76 -24.5 110.5t-78.5 34.5q-40 0 -72 -19t-77 -64v-394h-91z" />
<glyph unicode="o" horiz-adv-x="606" d="M303 -13q-105 0 -178.5 77t-73.5 207q0 131 73.5 208.5t178.5 77.5t178.5 -77.5t73.5 -208.5q0 -130 -73.5 -207t-178.5 -77zM303 63q71 0 114.5 57t43.5 151t-43.5 152t-114.5 58q-70 0 -113.5 -58t-43.5 -152t43 -151t114 -57z" />
<glyph unicode="p" horiz-adv-x="620" d="M92 -229v772h75l8 -62h3q93 76 173 76q103 0 159.5 -74.5t56.5 -202.5q0 -134 -69 -213.5t-167 -79.5q-73 0 -150 63l2 -95v-184h-91zM316 63q69 0 112.5 58.5t43.5 157.5q0 201 -143 201q-65 0 -146 -75v-285q67 -57 133 -57z" />
<glyph unicode="q" horiz-adv-x="620" d="M436 -229v193l5 99q-78 -76 -164 -76q-103 0 -163.5 75t-60.5 209q0 128 69 207t166 79q83 0 155 -66h3l9 52h72v-772h-91zM297 63q71 0 139 75v285q-64 57 -132 57q-67 0 -112 -58t-45 -150q0 -99 39 -154t111 -55z" />
<glyph unicode="r" horiz-adv-x="388" d="M92 0v543h75l8 -99h3q29 53 69 83t85 30q35 0 58 -12l-17 -80q-23 9 -53 9q-38 0 -75 -30t-62 -95v-349h-91z" />
<glyph unicode="s" horiz-adv-x="468" d="M234 -13q-112 0 -203 75l45 60q79 -64 161 -64q52 0 79.5 24t27.5 61q0 26 -21 47t-42 31t-61 25q-35 13 -58.5 24t-50 29.5t-40 44.5t-13.5 59q0 67 50.5 110.5t136.5 43.5q90 0 169 -61l-44 -59q-65 48 -125 48q-48 0 -73.5 -22t-25.5 -56q0 -23 18.5 -41.5t35 -26 t56.5 -22.5q7 -3 10 -4q33 -12 49 -19t42.5 -22t39.5 -30t24 -39.5t11 -54.5q0 -69 -52.5 -115t-145.5 -46z" />
<glyph unicode="t" horiz-adv-x="377" d="M263 -13q-155 0 -155 181v301h-81v69l85 5l11 152h76v-152h147v-74h-147v-303q0 -53 19 -79t65 -26q26 0 62 14l18 -68q-62 -20 -100 -20z" />
<glyph unicode="u" horiz-adv-x="607" d="M250 -13q-165 0 -165 212v344h91v-333q0 -76 24 -110t78 -34q41 0 74 21t73 71v385h91v-543h-76l-7 85h-3q-85 -98 -180 -98z" />
<glyph unicode="v" horiz-adv-x="521" d="M209 0l-196 543h95l102 -309q4 -13 22.5 -71.5t28.5 -88.5h4q45 143 50 160l103 309h90l-193 -543h-106z" />
<glyph unicode="w" horiz-adv-x="802" d="M178 0l-151 543h93l81 -314q30 -142 32 -152h5q28 121 37 152l84 314h89l85 -314q4 -17 12 -48t14 -56t12 -48h4q6 27 17.5 77.5t16.5 74.5l80 314h86l-146 -543h-110l-79 293q-1 3 -37 156h-5q-24 -108 -37 -158l-76 -291h-107z" />
<glyph unicode="x" horiz-adv-x="498" d="M15 0l179 283l-165 260h98l73 -120l54 -90h4q17 30 49 90l67 120h95l-165 -269l179 -274h-100l-80 127q-25 46 -58 97h-5q-3 -4 -56 -97l-73 -127h-96z" />
<glyph unicode="y" horiz-adv-x="521" d="M101 -234q-37 0 -64 11l18 73q25 -9 41 -9q85 0 123 117l12 41l-218 544h95l111 -302q38 -113 52 -152h5q6 19 22 72t24 80l97 302h89l-205 -588q-32 -89 -79.5 -139t-122.5 -50z" />
<glyph unicode="z" horiz-adv-x="474" d="M35 0v49l286 420h-255v74h370v-49l-286 -420h296v-74h-411z" />
<glyph unicode="{" horiz-adv-x="338" d="M255 -170q-69 0 -100 32.5t-31 116.5q0 41 5 109.5t5 105.5q0 87 -96 88v57q96 1 96 87q0 37 -5 106t-5 110q0 84 31 116.5t100 32.5h49v-51h-29q-44 0 -60 -23.5t-16 -79.5q0 -33 3 -98t3 -105q0 -55 -15.5 -83t-51.5 -38v-4q36 -10 51.5 -39t15.5 -83q0 -39 -3 -104.5 t-3 -98.5q0 -56 16 -79t60 -23h29v-52h-49z" />
<glyph unicode="|" horiz-adv-x="269" d="M103 -279v1117h64v-1117h-64z" />
<glyph unicode="}" horiz-adv-x="338" d="M34 -170v52h29q44 0 60 23t16 79q0 33 -2.5 98.5t-2.5 104.5q0 54 15 83t51 39v4q-36 10 -51 38t-15 83q0 40 2.5 105t2.5 98q0 56 -16 79.5t-60 23.5h-29v51h50q69 0 99.5 -32.5t30.5 -116.5q0 -41 -4.5 -110t-4.5 -106q0 -86 95 -87v-57q-95 -1 -95 -88 q0 -37 4.5 -105.5t4.5 -109.5q0 -84 -30.5 -116.5t-99.5 -32.5h-50z" />
<glyph unicode="~" horiz-adv-x="555" d="M376 287q-30 0 -59.5 15t-49.5 32.5t-44.5 32.5t-45.5 15q-49 0 -86 -68l-51 36q59 100 140 100q37 0 73 -23.5t67.5 -47t57.5 -23.5q50 0 85 68l52 -37q-59 -100 -139 -100z" />
<glyph unicode="&#xac00;" d="M101 727h410q0 -201 -99 -363.5t-308 -267.5l-45 64q342 172 371 499h-329v68zM887 459v-68h-144v-465h-82v897h82v-364h144z" />
<glyph unicode="&#xac01;" d="M92 766h413q0 -168 -110.5 -286.5t-309.5 -173.5l-34 65q164 44 259.5 129t106.5 199h-325v67zM166 190v66h583v-330h-82v264h-501zM882 596v-68h-133v-231h-82v527h82v-228h133z" />
<glyph unicode="&#xac04;" d="M91 753h418q0 -171 -112 -296t-309 -187l-33 65q160 50 256.5 142t109.5 209h-330v67zM272 234v-221h516v-67h-598v288h82zM749 550h133v-68h-133v-315h-82v655h82v-272z" />
<glyph unicode="&#xac07;" d="M92 766h413q0 -169 -110 -288.5t-311 -174.5l-31 66q164 44 258.5 129.5t106.5 200.5h-326v67zM267 198v-194h503v-66h-584v327h568v-67h-487zM749 603h133v-68h-133v-221h-82v510h82v-221z" />
<glyph unicode="&#xac08;" d="M93 779h415q0 -165 -111.5 -276t-311.5 -158l-31 68q164 36 259 115t105 184h-325v67zM262 104v-104h520v-65h-600v231h486v95h-489v65h570v-222h-487zM749 622h133v-68h-133v-188h-82v457h82v-201z" />
<glyph unicode="&#xac09;" d="M96 776h412q0 -167 -110.5 -279t-312.5 -160l-30 67q167 39 260 118t103 187h-322v67zM225 94v-95q175 0 269 19l9 -62q-103 -21 -304 -21h-54v218h211v86h-213v63h292v-208h-210zM473 236v66h276v-372h-81v306h-195zM882 617v-68h-133v-206h-82v479h82v-205h133z" />
<glyph unicode="&#xac0a;" d="M94 776h414q0 -166 -111 -276.5t-312 -157.5l-31 68q166 36 259.5 114.5t103.5 184.5h-323v67zM210 97v-95q134 0 221 16l8 -64q-94 -17 -262 -17h-47v221h203v83h-205v62h285v-206h-203zM539 242v-246h138v246h-138zM467 -66v369h282v-369h-282zM882 617v-69h-133v-203 h-82v477h82v-205h133z" />
<glyph unicode="&#xac10;" d="M92 766h414q0 -169 -110.5 -287.5t-311.5 -173.5l-32 65q164 44 259 129.5t107 199.5h-326v67zM265 206v-201h403v201h-403zM184 -61v333h565v-333h-565zM882 604v-68h-133v-222h-82v510h82v-220h133z" />
<glyph unicode="&#xac11;" d="M95 769h412q0 -167 -110.5 -280t-311.5 -162l-31 67q165 40 258.5 120t104.5 188h-322v67zM667 4v116h-404v-116h404zM667 184v113h82v-359h-567v359h81v-113h404zM882 611v-68h-133v-205h-82v485h82v-212h133z" />
<glyph unicode="&#xac12;" d="M95 769h411q0 -167 -110 -280t-310 -163l-31 67q164 40 257.5 120.5t104.5 188.5h-322v67zM382 2v117h-154v-117h154zM382 182v108h76v-351h-307v351h77v-108h154zM698 298v-72q0 -71 40 -136.5t114 -98.5l-44 -61q-106 49 -150 165q-43 -116 -150 -165l-44 61 q74 34 114.5 99t40.5 133v75h79zM749 616h133v-68h-133v-213h-82v488h82v-207z" />
<glyph unicode="&#xac13;" d="M96 753h413q0 -171 -110.5 -294.5t-309.5 -183.5l-34 66q163 49 258.5 139t107.5 207h-325v66zM520 295v-39q0 -94 86 -164.5t211 -93.5l-33 -65q-102 20 -184 72.5t-121 127.5q-39 -76 -121.5 -129t-185.5 -73l-34 65q125 22 212.5 93.5t87.5 166.5v39h82zM772 574h109 v-69h-109v-276h-82v595h82v-250z" />
<glyph unicode="&#xac14;" d="M94 766h413q0 -169 -111 -289t-311 -175l-31 68q163 44 258 129.5t106 199.5h-324v67zM679 285v-63q0 -72 48.5 -135t131.5 -92l-41 -60q-64 24 -110 68.5t-69 103.5q-48 -131 -165 -180q-120 48 -166 176q-54 -122 -177 -168l-41 60q82 30 131 94.5t49 132.5v63h79v-63 q0 -64 31.5 -122t92.5 -94q60 38 93 99t33 117v63h80zM749 599h133v-68h-133v-210h-82v504h82v-226z" />
<glyph unicode="&#xac15;" d="M93 756h414q0 -169 -110.5 -291t-308.5 -181l-33 66q161 48 256.5 136.5t106.5 203.5h-325v66zM468 -8q97 0 154 29t57 80t-57 80.5t-154 29.5t-154 -29.5t-57 -80.5t57 -80t154 -29zM468 275q134 0 213 -46.5t79 -127.5t-79 -127.5t-213 -46.5t-213 46.5t-79 127.5 t79 127.5t213 46.5zM749 591h133v-68h-133v-236h-82v536h82v-232z" />
<glyph unicode="&#xac16;" d="M94 766h413q0 -169 -110 -285.5t-311 -169.5l-31 67q165 42 259 126t105 195h-325v67zM764 200h-249q4 -72 87.5 -131.5t196.5 -77.5l-32 -64q-98 17 -178 65t-117 115q-37 -67 -117 -114.5t-180 -64.5l-30 63q115 18 197.5 76.5t86.5 132.5h-251v66h586v-66zM749 595 h133v-69h-133v-216h-82v515h82v-230z" />
<glyph unicode="&#xac17;" d="M95 765h412q0 -167 -109.5 -280.5t-310.5 -162.5l-31 67q166 39 259 120.5t103 188.5h-323v67zM768 190h-257q5 -71 89 -128t199 -73l-32 -61q-100 16 -180 61t-118 110q-38 -65 -118 -110t-179 -61l-32 61q115 16 198.5 73.5t88.5 127.5h-257v65h258v107h82v-107h258 v-65zM749 614h133v-68h-133v-217h-82v495h82v-210z" />
<glyph unicode="&#xac19;" d="M93 760h417q0 -166 -110 -276t-311 -157l-33 66q167 36 260.5 115.5t102.5 185.5h-326v66zM266 92v-92h508v-62h-590v365h570v-61h-488v-89h477v-61h-477zM749 615h133v-68h-133v-203h-82v479h82v-208z" />
<glyph unicode="&#xac1a;" d="M96 765h413q0 -166 -113.5 -281.5t-310.5 -166.5l-31 69q160 40 257 122t108 190h-323v67zM382 214v-206h186v206h-186zM649 214v-206h135v-66h-615v66h132v206h-124v66h596v-66h-124zM749 609h133v-68h-133v-217h-82v499h82v-214z" />
<glyph unicode="&#xac1b;" d="M92 771h415q0 -169 -108.5 -281t-312.5 -161l-30 68q168 38 259.5 117.5t101.5 189.5h-325v67zM474 -13q82 0 127 17.5t45 50.5q0 32 -45.5 50t-126.5 18t-126.5 -18t-45.5 -50q0 -33 45 -50.5t127 -17.5zM474 182q117 0 183 -33.5t66 -93.5q0 -61 -66 -94.5t-183 -33.5 t-183 33.5t-66 94.5q0 60 66 93.5t183 33.5zM515 393v-106h271v-63h-624v63h271v106h82zM749 623h133v-68h-133v-205h-82v473h82v-200z" />
<glyph unicode="&#xac1c;" d="M87 707h350q0 -399 -336 -589l-48 59q283 158 303 463h-269v67zM735 823h79v-897h-79v469h-122v-424h-77v828h77v-337h122v361z" />
<glyph unicode="&#xac1d;" d="M93 756h350q0 -160 -87.5 -279.5t-257.5 -191.5l-40 60q137 56 213.5 144.5t87.5 200.5h-266v66zM207 185v67h603v-326h-82v259h-521zM731 822h79v-527h-79v235h-118v-231h-78v507h78v-209h118v225z" />
<glyph unicode="&#xac20;" d="M613 481v-298h-78v623h78v-258h118v274h79v-669h-79v328h-118zM95 735h347q0 -328 -342 -478l-41 60q136 58 212 147.5t88 204.5h-264v66zM304 18h533v-67h-615v284h82v-217z" />
<glyph unicode="&#xac24;" d="M613 554v-185h-78v436h78v-185h118v202h79v-459h-79v191h-118zM96 768h345q0 -153 -87 -262.5t-254 -170.5l-39 60q272 97 297 307h-262v66zM301 4h543v-66h-624v229h509v90h-511v65h592v-217h-509v-101z" />
<glyph unicode="&#xac2c;" d="M95 756h349q0 -326 -341 -469l-42 61q275 111 298 342h-264v66zM301 195v-189h428v189h-428zM221 -60v321h589v-321h-589zM731 822h79v-514h-79v226h-118v-220h-78v492h78v-205h118v221z" />
<glyph unicode="&#xac2d;" d="M96 763h347q0 -320 -341 -459l-41 61q274 106 298 331h-263v67zM729 6v117h-425v-117h425zM729 188v108h81v-356h-588v356h82v-108h425zM731 823h79v-487h-79v203h-118v-197h-78v464h78v-200h118v217z" />
<glyph unicode="&#xac2f;" d="M613 519v-200h-78v487h78v-220h118v237h79v-586h-79v282h-118zM98 741h347q0 -334 -342 -484l-44 60q279 117 301 357h-262v67zM553 277v-39q0 -86 91 -155t214 -89l-33 -65q-103 19 -188 70t-125 125q-39 -74 -124 -125t-188 -70l-32 65q122 20 212.5 89t90.5 155v39h82 z" />
<glyph unicode="&#xac30;" d="M613 529v-216h-78v493h78v-210h118v226h79v-513h-79v220h-118zM95 756h348q0 -159 -87 -277t-255 -189l-42 61q135 55 211.5 141t87.5 197h-263v67zM696 274v-58q0 -72 48.5 -134.5t131.5 -91.5l-40 -60q-132 46 -181 170q-47 -127 -165 -178q-121 48 -165 175 q-55 -120 -179 -167l-41 60q82 31 131.5 95t49.5 131v58h79v-58q0 -63 32 -120.5t92 -93.5q61 38 94 98t33 116v58h80z" />
<glyph unicode="&#xac31;" d="M613 520v-217h-78v503h78v-219h118v235h79v-550h-79v248h-118zM97 749h347q0 -161 -87.5 -281.5t-256.5 -192.5l-43 60q279 116 302 348h-262v66zM515 -7q103 0 162 27.5t59 75.5t-59.5 75.5t-161.5 27.5q-104 0 -163.5 -27.5t-59.5 -75.5q0 -49 59.5 -76t163.5 -27z M515 263q141 0 222 -44.5t81 -122.5q0 -79 -81 -123t-222 -44q-142 0 -223.5 44t-81.5 123q0 78 81.5 122.5t223.5 44.5z" />
<glyph unicode="&#xac38;" d="M101 727h410q0 -131 -40.5 -244.5t-133 -214.5t-233.5 -172l-45 64q342 172 371 499h-329v68zM885 514h-142v-201h142v-68h-142v-319h-82v897h82v-241h142v-68z" />
<glyph unicode="&#xac39;" d="M92 766h413q0 -168 -110.5 -286.5t-309.5 -173.5l-34 65q164 44 259.5 129t106.5 199h-325v67zM166 190v66h583v-330h-82v264h-501zM882 620h-133v-127h133v-66h-133v-130h-82v527h82v-138h133v-66z" />
<glyph unicode="&#xac3c;" d="M91 753h418q0 -170 -112 -295.5t-309 -187.5l-33 65q160 50 256.5 142t109.5 209h-330v67zM272 234v-221h516v-67h-598v288h82zM882 586h-133v-153h133v-68h-133v-198h-82v655h82v-168h133v-68z" />
<glyph unicode="&#xac40;" d="M93 779h415q0 -165 -111.5 -276t-311.5 -158l-31 67q165 36 259.5 115t104.5 185h-325v67zM262 104v-104h520v-65h-600v231h486v95h-489v65h570v-222h-487zM882 645h-133v-111h133v-66h-133v-102h-82v457h82v-112h133v-66z" />
<glyph unicode="&#xac4b;" d="M96 753h413q0 -171 -110.5 -295t-309.5 -184l-34 66q163 49 258.5 139t107.5 208h-325v66zM520 293v-40q0 -93 86 -163.5t211 -94.5l-34 -63q-102 20 -183.5 72t-120.5 127q-39 -76 -121.5 -129t-185.5 -73l-34 65q126 22 213 93t87 166v40h82zM882 601h-133v-148h133 v-68h-133v-158h-82v596h82v-154h133v-68z" />
<glyph unicode="&#xac4d;" d="M93 756h414q0 -170 -110.5 -292t-308.5 -180l-33 66q161 48 256.5 136.5t106.5 203.5h-325v66zM468 -8q97 0 154 29t57 80t-57 80.5t-154 29.5t-154 -29.5t-57 -80.5t57 -80t154 -29zM468 275q134 0 213 -46.5t79 -127.5t-79 -127.5t-213 -46.5t-213 46.5t-79 127.5 t79 127.5t213 46.5zM881 614h-132v-129h132v-67h-132v-131h-82v536h82v-142h132v-67z" />
<glyph unicode="&#xac54;" d="M87 707h350q0 -399 -336 -589l-48 59q283 158 303 463h-269v67zM613 336h122v186h-122v-186zM735 823h79v-897h-79v343h-122v-299h-77v829h77v-210h122v234z" />
<glyph unicode="&#xac58;" d="M731 583h-118v-151h118v151zM613 365v-183h-78v624h78v-156h118v172h79v-669h-79v212h-118zM95 735h347q0 -162 -86.5 -283.5t-255.5 -195.5l-41 61q136 58 212 147.5t88 204.5h-264v66zM304 18h533v-67h-615v283h82v-216z" />
<glyph unicode="&#xac5c;" d="M731 636h-118v-104h118v104zM613 468v-99h-78v437h78v-106h118v122h79v-459h-79v105h-118zM96 769h345q0 -309 -341 -437l-39 61q273 98 297 310h-262v66zM301 -2h543v-66h-624v228h509v94h-511v65h592v-220h-509v-101z" />
<glyph unicode="&#xac70;" d="M92 726h409q0 -430 -404 -629l-45 64q343 168 367 499h-327v66zM709 822h82v-896h-82v470h-210v67h210v359z" />
<glyph unicode="&#xac71;" d="M111 766h403q0 -168 -110 -286.5t-306 -174.5l-33 64q160 46 254.5 131.5t107.5 198.5h-316v67zM192 191v66h600v-328h-83v262h-517zM709 823h83v-526h-83v223h-192v67h192v236z" />
<glyph unicode="&#xac74;" d="M515 546h194v276h83v-662h-83v319h-194v67zM112 753h407q0 -170 -111.5 -298t-305.5 -192l-35 66q157 52 254 145t110 212h-319v67zM307 13h508v-67h-590v281h82v-214z" />
<glyph unicode="&#xac77;" d="M709 313v204h-195v68h195v238h83v-510h-83zM108 766h404q0 -168 -110 -287.5t-307 -176.5l-32 66q161 45 255.5 131t107.5 200h-318v67zM295 4h515v-66h-597v325h581v-66h-499v-193z" />
<glyph unicode="&#xac78;" d="M709 363v178h-195v66h195v216h83v-460h-83zM114 779h394q0 -164 -107.5 -274.5t-304.5 -159.5l-30 65q160 39 251.5 117.5t102.5 185.5h-306v66zM297 0h525v-65h-606v231h494v93h-496v65h578v-220h-495v-104z" />
<glyph unicode="&#xac7a;" d="M111 777h401q0 -164 -109 -275.5t-307 -159.5l-30 64q162 39 254.5 118.5t103.5 186.5h-313v66zM242 100v-97q145 0 228 16l8 -64q-95 -17 -267 -17h-48v223h209v85h-211v63h290v-209h-209zM578 248v-248h142v248h-142zM506 -62v371h286v-371h-286zM709 823h83v-474h-83 v190h-194v67h194v217z" />
<glyph unicode="&#xac80;" d="M108 766h405q0 -168 -110 -286.5t-306 -174.5l-34 64q161 46 255.5 131.5t107.5 198.5h-318v67zM293 208v-203h418v203h-418zM212 -61v334h579v-334h-579zM709 823h82v-512h-82v214h-195v67h195v231z" />
<glyph unicode="&#xac81;" d="M110 767h404q0 -167 -108.5 -280.5t-308.5 -165.5l-33 64q165 42 258.5 123t103.5 192h-316v67zM710 4v115h-417v-115h417zM710 183v112h81v-357h-580v357h82v-112h417zM709 823h82v-483h-82v190h-194v68h194v225z" />
<glyph unicode="&#xac83;" d="M709 216v287h-193v67h193v252h83v-606h-83zM111 752h402q0 -171 -107 -293.5t-302 -185.5l-36 65q160 51 252.5 140t104.5 207h-314v67zM543 294v-41q0 -93 86.5 -163.5t210.5 -94.5l-33 -64q-102 20 -184 72.5t-121 127.5q-39 -77 -121.5 -129.5t-186.5 -72.5l-33 65 q126 22 213 93t87 166v41h82z" />
<glyph unicode="&#xac84;" d="M709 312v213h-193v68h193v230h83v-511h-83zM113 766h400q0 -167 -110 -286t-306 -175l-34 64q161 46 255.5 131.5t106.5 198.5h-312v67zM691 287v-65q0 -72 48 -134.5t132 -90.5l-41 -62q-132 50 -180 170q-49 -128 -166 -177q-118 45 -167 174q-52 -118 -177 -167 l-42 62q83 30 132 93.5t49 131.5v65h79v-65q0 -63 32 -121.5t93 -93.5q61 38 94.5 98.5t33.5 116.5v65h80z" />
<glyph unicode="&#xac85;" d="M709 288v215h-192v67h192v252h83v-534h-83zM111 755h404q0 -170 -110 -290t-308 -179l-33 65q162 48 257 136t105 202h-315v66zM500 -5q99 0 157 29t58 80t-58 80t-157 29q-100 0 -158.5 -29t-58.5 -80t58.5 -80t158.5 -29zM500 277q136 0 216 -46.5t80 -126.5 q0 -81 -80 -127.5t-216 -46.5q-137 0 -217.5 46.5t-80.5 127.5t80.5 127t217.5 46z" />
<glyph unicode="&#xac86;" d="M516 586h193v237h83v-513h-83v209h-193v67zM111 766h416q0 -169 -113.5 -286t-315.5 -169l-31 66q166 41 263.5 126t108.5 196h-328v67zM803 198h-254q1 -71 85.5 -130t200.5 -77l-31 -63q-99 16 -179.5 62.5t-118.5 111.5q-37 -66 -117.5 -112t-180.5 -62l-30 63 q117 17 200.5 75.5t84.5 131.5h-250v66h590v-66z" />
<glyph unicode="&#xac89;" d="M709 340v189h-190v68h190v226h83v-483h-83zM109 769h405q0 -167 -108 -281t-309 -166l-32 66q165 41 258 123t104 192h-318v66zM300 1h512v-62h-594v364h577v-62h-495v-88h482v-61h-482v-91z" />
<glyph unicode="&#xac8a;" d="M513 589h196v234h83v-502h-83v200h-196v68zM110 765h403q0 -166 -110.5 -282.5t-306.5 -170.5l-31 65q160 43 255 126.5t106 194.5h-316v67zM404 211v-205h185v205h-185zM670 6h140v-66h-623v66h136v205h-128v66h604v-66h-129v-205z" />
<glyph unicode="&#xac8b;" d="M709 347v197h-196v67h196v212h83v-476h-83zM112 770h394q0 -167 -106 -278.5t-306 -163.5l-29 66q163 40 253.5 120t101.5 190h-308v66zM497 -14q77 0 120.5 17.5t43.5 50.5q0 31 -43.5 49t-120.5 18t-120.5 -18t-43.5 -49q0 -33 43.5 -50.5t120.5 -17.5zM497 180 q116 0 182.5 -33t66.5 -93t-66 -93t-183 -33t-183 33t-66 93t66.5 93t182.5 33zM539 284h271v-63h-625v63h272v105h82v-105z" />
<glyph unicode="&#xac8c;" d="M550 456v343h78v-828h-78v419h-184q-85 -164 -264 -271l-48 59q279 167 303 464h-265v67h346q0 -138 -43 -253h155zM737 823h78v-897h-78v897z" />
<glyph unicode="&#xac90;" d="M810 822v-673h-79v673h79zM553 468h-184q-87 -130 -269 -210l-42 60q280 118 303 352h-262v67h346q0 -112 -40 -202h148v269h77v-629h-77v293zM309 13h533v-67h-615v287h82v-220z" />
<glyph unicode="&#xac94;" d="M810 822v-459h-79v459h79zM553 537h-171q-84 -132 -278 -205l-41 61q276 96 299 310h-260v66h345q0 -87 -30 -166h136v200h77v-436h-77v170zM301 4h543v-66h-624v227h508v89h-510v65h592v-216h-509v-99z" />
<glyph unicode="&#xac9c;" d="M553 509h-171q-86 -141 -276 -222l-42 61q275 113 299 341h-262v67h346q0 -98 -33 -180h139v227h77v-487h-77v193zM302 197v-191h427v191h-427zM222 -60v323h588v-323h-588zM731 822h79v-516h-79v516z" />
<glyph unicode="&#xac9d;" d="M553 516h-174q-85 -136 -277 -210l-40 60q276 103 298 328h-258v66h343q0 -95 -32 -177h140v220h77v-467h-77v180zM729 5v114h-425v-114h425zM729 184v108h81v-353h-588v353h82v-108h425zM731 822h79v-493h-79v493z" />
<glyph unicode="&#xac9f;" d="M810 823v-597h-79v597h79zM553 492h-171q-87 -150 -279 -235l-43 60q277 119 301 357h-263v67h346q0 -100 -31 -183h140v245h77v-500h-77v189zM550 278v-40q0 -87 91 -155.5t215 -87.5l-32 -65q-104 19 -189.5 70t-125.5 125q-40 -74 -125.5 -125t-189.5 -70l-32 65 q124 19 215 87.5t91 155.5v40h82z" />
<glyph unicode="&#xaca0;" d="M810 822v-517h-79v517h79zM553 502h-176q-86 -134 -273 -215l-43 61q277 111 302 342h-263v66h347q0 -102 -36 -188h142v235h77v-484h-77v183zM696 274v-58q0 -72 48.5 -134.5t131.5 -91.5l-40 -60q-132 46 -181 170q-48 -129 -165 -178q-121 48 -165 175 q-55 -120 -179 -167l-41 60q82 30 131.5 94t49.5 132v58h79v-58q0 -63 32 -120.5t92 -93.5q60 38 93.5 98t33.5 116v58h80z" />
<glyph unicode="&#xaca1;" d="M810 822v-550h-79v550h79zM553 501h-173q-86 -144 -279 -226l-42 60q137 57 214.5 145.5t88.5 202.5h-264v66h349q0 -93 -33 -181h139v235h77v-500h-77v198zM516 -8q103 0 162.5 27.5t59.5 76.5q0 48 -59.5 75.5t-162.5 27.5t-162.5 -27.5t-59.5 -75.5q0 -49 59.5 -76.5 t162.5 -27.5zM516 262q141 0 222.5 -44t81.5 -122q0 -79 -81 -123t-223 -44q-141 0 -222.5 44t-81.5 123q0 78 81.5 122t222.5 44z" />
<glyph unicode="&#xaca8;" d="M709 824h82v-897h-82v343h-248v67h248v174h-235q-82 -270 -378 -416l-43 66q344 169 369 499h-330v66h412q0 -74 -14 -149h219v247z" />
<glyph unicode="&#xaca9;" d="M192 182v66h600v-320h-83v254h-517zM709 823h83v-535h-83v118h-232v67h232v123h-219q-45 -105 -145.5 -180.5t-245.5 -116.5l-33 66q164 44 260.5 130.5t108.5 200.5h-322v67h410q0 -52 -12 -100h198v160z" />
<glyph unicode="&#xacaa;" d="M170 192v67h293v-333h-82v266h-211zM505 192v67h287v-333h-83v266h-204zM709 823h83v-521h-83v107h-234v67h234v125h-220q-45 -106 -144.5 -181.5t-244.5 -115.5l-34 66q162 44 259 130t109 199h-322v67h410q0 -49 -11 -99h198v156z" />
<glyph unicode="&#xacac;" d="M709 571h-224q-46 -106 -144 -185t-237 -124l-36 67q158 51 256 144.5t111 212.5h-321v66h409q0 -60 -15 -114h201v184h83v-667h-83v214h-236v67h236v135zM307 13h507v-67h-589v274h82v-207z" />
<glyph unicode="&#xacaf;" d="M709 608h-221q-43 -108 -143.5 -185.5t-246.5 -118.5l-33 66q161 44 256.5 129.5t107.5 199.5h-321v67h409q0 -49 -10 -92h202v149h83v-510h-83v104h-234v67h234v124zM295 4h515v-66h-597v325h581v-66h-499v-193z" />
<glyph unicode="&#xacb0;" d="M709 629h-221q-84 -211 -391 -284l-30 67q163 38 255.5 115.5t103.5 184.5h-312v67h401q0 -44 -9 -86h203v130h83v-458h-83v93h-234v64h234v107zM297 0h525v-65h-606v231h494v92h-496v66h578v-220h-495v-104z" />
<glyph unicode="&#xacb8;" d="M293 207v-202h418v202h-418zM212 -61v333h579v-333h-579zM709 823h82v-513h-82v114h-234v67h234v117h-223q-43 -108 -143 -185t-246 -118l-33 64q161 45 256 131t108 199h-320v67h407q0 -46 -9 -91h203v148z" />
<glyph unicode="&#xacb9;" d="M710 4v115h-417v-115h417zM710 183v112h81v-357h-580v357h82v-112h417zM709 823h82v-482h-82v91h-232v67h232v116h-221q-83 -215 -390 -294l-34 65q165 42 259 123t104 191h-317v67h405q0 -42 -8 -85h202v141z" />
<glyph unicode="&#xacbb;" d="M709 587h-225q-83 -217 -380 -314l-36 64q160 51 253 140.5t105 207.5h-315v67h403q0 -54 -10 -98h205v168h83v-608h-83v183h-234v67h234v123zM543 292v-39q0 -94 86.5 -164.5t210.5 -92.5l-33 -65q-103 20 -184.5 72t-120.5 128q-39 -77 -121.5 -129.5t-186.5 -72.5 l-33 65q126 22 213 93t87 166v39h82z" />
<glyph unicode="&#xacbc;" d="M709 606h-223q-43 -107 -143 -183.5t-246 -117.5l-33 64q161 45 256.5 131t107.5 199h-315v67h403q0 -49 -10 -93h203v150h82v-512h-82v109h-234v67h234v119zM691 287v-65q0 -72 48 -135t132 -91l-41 -61q-132 50 -180 170q-49 -128 -166 -178q-119 47 -167 175 q-52 -118 -177 -167l-42 61q83 31 132 94.5t49 131.5v65h79v-65q0 -63 32 -121.5t93 -93.5q61 38 94.5 98.5t33.5 116.5v65h80z" />
<glyph unicode="&#xacbd;" d="M709 591h-224q-88 -218 -387 -305l-33 65q162 48 256.5 135.5t105.5 202.5h-316v66h405q0 -45 -10 -97h203v164h83v-536h-83v118h-235v67h235v120zM499 -6q99 0 157.5 29t58.5 80q0 50 -58.5 79t-157.5 29t-157.5 -29t-58.5 -79q0 -51 58.5 -80t157.5 -29zM499 276 q137 0 217 -46t80 -127t-80 -127t-217 -46t-217 46t-80 127t80 127t217 46z" />
<glyph unicode="&#xacc1;" d="M709 619h-221q-81 -216 -391 -297l-33 65q165 42 258.5 123.5t105.5 192.5h-319v66h406q0 -41 -8 -86h202v140h82v-484h-82v104h-233v64h233v112zM300 1h512v-62h-594v364h577v-62h-495v-88h482v-61h-482v-91z" />
<glyph unicode="&#xacc4;" d="M557 573v226h78v-827h-78v310h-162v67h162v158h-148q-68 -244 -309 -387l-48 58q281 167 303 464h-263v67h344q0 -69 -12 -136h133zM737 823h78v-896h-78v896z" />
<glyph unicode="&#xacc8;" d="M810 822v-667h-79v667h79zM559 557h-145q-73 -197 -316 -304l-41 61q280 120 303 356h-261v67h346q0 -59 -12 -114h126v181h77v-627h-77v183h-163v67h163v130zM307 13h533v-67h-615v290h82v-223z" />
<glyph unicode="&#xaccc;" d="M810 822v-462h-79v462h79zM559 622h-136q-67 -194 -319 -289l-41 60q276 98 297 310h-258v66h344q0 -45 -7 -83h120v117h77v-438h-77v91h-147v64h147v102zM301 0h543v-65h-624v228h508v91h-510v65h592v-217h-509v-102z" />
<glyph unicode="&#xacd5;" d="M559 606h-138q-66 -200 -319 -299l-41 61q274 102 299 326h-258v66h342q0 -42 -8 -90h123v133h77v-469h-77v101h-144v64h144v107zM729 6v113h-425v-113h425zM729 184v107h81v-351h-588v351h82v-107h425zM731 822h79v-495h-79v495z" />
<glyph unicode="&#xacd7;" d="M810 823v-606h-79v606h79zM553 585h-133q-65 -214 -317 -329l-44 62q277 119 301 356h-262v67h346q0 -48 -7 -90h116v152h77v-510h-77v113h-141v67h141v112zM550 270v-36q0 -85 90.5 -152.5t215.5 -87.5l-31 -63q-104 17 -190 67.5t-126 123.5q-40 -73 -126 -123.5 t-190 -67.5l-31 63q124 20 215 87.5t91 152.5v36h82z" />
<glyph unicode="&#xace0;" d="M686 644v22h-547v67h629v-89q0 -234 -34 -415l-82 9q34 172 34 406zM451 119h414v-67h-811v67h315v321h82v-321z" />
<glyph unicode="&#xace1;" d="M680 706v2h-530v66h611v-68q0 -146 -22 -247l-82 8q23 101 23 239zM141 162v66h619v-302h-82v236h-537zM468 396h395v-66h-808v66h331v182h82v-182z" />
<glyph unicode="&#xace4;" d="M737 437l-82 10q25 110 25 256h-531v67h612v-63q0 -156 -24 -270zM238 218v-205h545v-67h-627v272h82zM468 376h395v-67h-809v67h332v185h82v-185z" />
<glyph unicode="&#xace7;" d="M680 706v10h-531v66h612v-76q0 -145 -24 -237l-81 9q24 92 24 228zM236 186v-180h537v-67h-619v314h606v-67h-524zM468 417h395v-66h-809v66h332v168h82v-168z" />
<glyph unicode="&#xace8;" d="M744 516l-81 8q17 87 17 197h-530v66h611v-58q0 -125 -17 -213zM233 102v-100h554v-65h-635v225h531v90h-534v65h616v-215h-532zM468 465h395v-65h-808v65h331v156h82v-156z" />
<glyph unicode="&#xacea;" d="M741 493l-80 9q19 96 19 214h-530v66h611v-56q0 -136 -20 -233zM220 94v-96q148 0 228 16l7 -62q-85 -16 -267 -16h-47v217h206v84h-209v61h288v-204h-206zM554 237v-239h148v239h-148zM484 -64v362h289v-362h-289zM468 445h394v-66h-807v66h331v162h82v-162z" />
<glyph unicode="&#xacec;" d="M680 716v4h-530v66h611v-70q0 -134 -19 -219l-81 9q19 84 19 210zM220 95v-97q140 0 218 15l6 -62q-84 -15 -257 -15h-46v217h206v84h-209v62h288v-204h-206zM677 315v-87q0 -73 40.5 -140t115.5 -99l-45 -58q-107 48 -150 166q-43 -116 -149 -166l-45 58 q75 34 115.5 100.5t40.5 138.5v87h77zM468 448h394v-66h-807v66h331v163h82v-163z" />
<glyph unicode="&#xacef;" d="M741 506l-80 9q19 95 19 211h-530v66h611v-55q0 -135 -20 -231zM215 100v-98q154 0 237 15l9 -61q-87 -16 -274 -16h-48v220h199v84h-202v61h279v-205h-200zM635 -17q37 0 59 16t22 44t-22 44t-59 16q-36 0 -58 -16t-22 -44t22 -44t58 -16zM635 160q67 0 109.5 -32 t42.5 -85t-42.5 -85t-109.5 -32q-66 0 -108 32t-42 85t42 85t108 32zM675 336v-82h150v-61h-376v61h147v82h79zM468 456h395v-66h-808v66h331v162h82v-162z" />
<glyph unicode="&#xacf0;" d="M680 707v10h-530v66h611v-76q0 -144 -24 -236l-81 10q24 91 24 226zM233 189v-185h450v185h-450zM152 -62v316h611v-316h-611zM468 420h395v-67h-808v67h331v172h82v-172z" />
<glyph unicode="&#xacf1;" d="M737 487l-81 8q24 94 24 225h-531v67h612v-65q0 -139 -24 -235zM676 4v119h-436v-119h436zM676 186v110h82v-358h-600v358h82v-110h436zM468 438h396v-67h-810v67h332v159h82v-159z" />
<glyph unicode="&#xacf3;" d="M738 465l-80 9q22 101 22 240h-530v66h611v-63q0 -148 -23 -252zM497 266v-40q0 -86 87.5 -150t214.5 -82l-31 -64q-107 18 -190 65t-122 118q-40 -71 -124 -118t-190 -65l-31 64q128 18 215.5 82t87.5 150v40h83zM468 403h395v-66h-808v66h331v180h82v-180z" />
<glyph unicode="&#xacf5;" d="M680 701v10h-530v66h611v-76q0 -145 -25 -237l-80 9q24 92 24 228zM455 -9q106 0 168.5 27t62.5 73q0 48 -62.5 75t-168.5 27t-168 -27t-62 -75q0 -46 62.5 -73t167.5 -27zM455 256q144 0 228.5 -44t84.5 -121q0 -76 -84.5 -120t-228.5 -44t-228 44t-84 120q0 77 84 121 t228 44zM468 405h394v-67h-807v67h331v172h82v-172z" />
<glyph unicode="&#xacf6;" d="M680 713v6h-530v67h611v-73q0 -141 -24 -230l-81 9q24 90 24 221zM770 195h-267q10 -77 95.5 -132t206.5 -71l-30 -63q-108 16 -192.5 62t-123.5 116q-38 -70 -123 -116t-192 -62l-30 63q121 16 206.5 71t95.5 132h-267v66h621v-66zM468 427h395v-66h-808v66h331v164h82 v-164z" />
<glyph unicode="&#xacfc;" d="M521 320l-82 8q27 161 27 330h-373v67h453v-49q0 -189 -25 -356zM315 469v-274q188 8 289 21l5 -60q-211 -34 -556 -34l-9 68q90 0 190 3v276h81zM884 448v-69h-143v-453h-82v897h82v-375h143z" />
<glyph unicode="&#xacfd;" d="M523 464l-80 9q23 112 23 222h-364v67h444v-48q0 -140 -23 -250zM609 413l5 -61q-209 -36 -559 -36l-8 68q122 0 190 2v184h81v-182q173 7 291 25zM161 157v66h590v-292h-82v226h-508zM879 573v-68h-128v-237h-82v555h82v-250h128z" />
<glyph unicode="&#xad00;" d="M524 440l-81 9q24 118 24 237h-366v67h446v-47q0 -148 -23 -266zM609 386l6 -60q-216 -36 -560 -36l-8 67q54 0 190 2v194h81v-191q172 7 291 24zM266 209v-196h514v-67h-596v263h82zM751 531h129v-68h-129v-316h-82v676h82v-292z" />
<glyph unicode="&#xad04;" d="M524 501l-80 8q22 101 22 199h-364v66h444v-44q0 -128 -22 -229zM610 457l6 -59q-206 -33 -560 -33l-8 65q121 0 188 2v163h81v-161q181 7 293 23zM248 93v-95h536v-63h-618v218h503v86h-505v62h587v-208h-503zM751 610h128v-68h-128v-202h-82v483h82v-213z" />
<glyph unicode="&#xad06;" d="M524 501l-80 8q22 100 22 199h-364v66h444v-43q0 -130 -22 -230zM610 460l6 -59q-201 -34 -560 -34l-8 66q121 0 188 2v160h81v-158q181 7 293 23zM213 87v-90q140 1 222 17l6 -62q-82 -16 -261 -16h-46v209h204v78h-206v61h285v-197h-204zM540 222v-224h139v224h-139z M468 -64v348h283v-348h-283zM879 604v-68h-128v-210h-82v497h82v-219h128z" />
<glyph unicode="&#xad0c;" d="M523 486l-80 7q23 103 23 208h-364v66h444v-45q0 -133 -23 -236zM609 432l6 -61q-206 -35 -559 -35l-9 67q122 0 190 2v168h81v-166q173 7 291 25zM257 178v-172h414v172h-414zM177 -60v303h574v-303h-574zM879 589v-68h-128v-233h-82v535h82v-234h128z" />
<glyph unicode="&#xad0d;" d="M524 495l-80 8q22 101 22 201h-365v67h445v-44q0 -130 -22 -232zM611 448l6 -59q-213 -34 -562 -34l-8 67q122 0 189 2v160h81v-158q180 7 294 22zM670 5v113h-412v-113h412zM670 182v102h81v-346h-574v346h81v-102h412zM879 601v-68h-128v-213h-82v503h82v-222h128z" />
<glyph unicode="&#xad0f;" d="M521 472l-80 8q25 109 25 220h-364v66h444v-45q0 -139 -25 -249zM610 412l5 -60q-210 -35 -560 -35l-8 67q122 0 190 2v181h81v-178q182 7 292 23zM519 254v-35q0 -82 86.5 -144.5t212.5 -80.5l-31 -64q-105 16 -188 63t-122 116q-40 -70 -122.5 -116.5t-187.5 -62.5 l-32 64q127 18 213 80t86 145v35h85zM751 553h128v-68h-128v-273h-82v612h82v-271z" />
<glyph unicode="&#xad11;" d="M523 475l-80 7q23 104 23 219h-364v66h444v-48q0 -138 -23 -244zM609 419l6 -60q-218 -34 -559 -34l-9 68q123 0 190 2v177h81v-175q178 7 291 22zM462 -7q100 0 157.5 26t57.5 72t-57.5 71.5t-157.5 25.5t-157.5 -25.5t-57.5 -71.5t57.5 -72t157.5 -26zM462 252 q139 0 218.5 -42.5t79.5 -118.5q0 -77 -79.5 -120t-218.5 -43t-218.5 43t-79.5 120q0 76 79.5 118.5t218.5 42.5zM751 578h128v-68h-128v-246h-82v560h82v-246z" />
<glyph unicode="&#xad18;" d="M441 333l-76 6q21 139 21 315h-303v66h378v-61q0 -182 -20 -326zM269 470v-256q133 5 233 18l5 -61q-167 -30 -453 -30l-12 69q95 0 151 1v259h76zM735 823h78v-897h-78v451h-108v-404h-78v830h78v-359h108v379z" />
<glyph unicode="&#xad1c;" d="M624 470v-302h-77v638h77v-269h106v285h79v-680h-79v328h-106zM446 444l-77 8q20 105 20 234h-296v66h373v-58q0 -145 -20 -250zM504 384l6 -60q-169 -29 -456 -29l-10 67q40 0 156 2v185h76v-182q123 5 228 17zM287 13h547v-67h-630v267h83v-200z" />
<glyph unicode="&#xad20;" d="M624 535v-198h-77v469h77v-204h106v221h79v-492h-79v204h-106zM448 500l-76 6q17 96 17 199h-296v66h373v-52q0 -128 -18 -219zM504 448l5 -58q-174 -29 -454 -29l-11 66q98 0 156 2v161h76v-159q140 5 228 17zM282 -1h559v-63h-639v214h526v81h-529v62h610v-204h-527 v-90z" />
<glyph unicode="&#xad29;" d="M446 484l-76 6q19 96 19 213h-296v66h373v-55q0 -133 -20 -230zM504 429l5 -57q-165 -28 -455 -30l-11 66q41 0 157 2v169h76v-166q136 5 228 16zM728 5v108h-445v-108h445zM728 178v100h81v-340h-607v340h81v-100h445zM730 823h79v-507h-79v209h-106v-202h-77v482h77 v-213h106v231z" />
<glyph unicode="&#xad2c;" d="M624 512v-218h-77v512h77v-227h106v244h79v-536h-79v225h-106zM447 471l-75 8q17 97 17 217h-296v66h373v-56q0 -137 -19 -235zM504 413l6 -57q-150 -29 -455 -32l-11 66q98 0 156 2v173h76v-171q144 5 228 19zM693 253v-30q0 -73 48 -135.5t132 -90.5l-40 -60 q-132 48 -180 167q-46 -125 -166 -175q-120 48 -166 174q-49 -118 -179 -166l-41 60q84 29 132.5 91.5t48.5 134.5v30h79v-30q0 -61 32.5 -119.5t92.5 -94.5q62 37 94.5 95.5t32.5 118.5v30h80z" />
<glyph unicode="&#xad2d;" d="M448 459l-77 6q18 102 18 225h-296v65h373v-57q0 -139 -18 -239zM503 405l6 -57q-158 -32 -455 -32l-10 66q98 0 156 2v171h76v-169q149 8 227 19zM499 -10q107 0 166.5 23.5t59.5 68.5q0 43 -59.5 67.5t-166.5 24.5q-106 0 -165 -24t-59 -68q0 -45 58.5 -68.5 t165.5 -23.5zM499 237q147 0 228.5 -40.5t81.5 -114.5q0 -75 -82 -115.5t-228 -40.5q-145 0 -226.5 41t-81.5 115t81.5 114.5t226.5 40.5zM730 822h79v-567h-79v256h-106v-228h-77v523h77v-228h106v244z" />
<glyph unicode="&#xad34;" d="M543 324l-81 10q26 163 26 318h-374v67h455v-45q0 -184 -26 -350zM337 452v-261q192 7 312 23l6 -61q-219 -34 -587 -34l-12 68q130 0 200 2v263h81zM707 823h82v-899h-82v899z" />
<glyph unicode="&#xad35;" d="M536 463l-81 8q24 112 24 224h-359v67h439v-48q0 -141 -23 -251zM638 404l5 -60q-207 -33 -576 -35l-12 68q130 0 201 2v181h80v-178q179 5 302 22zM182 156v66h607v-296h-82v230h-525zM707 823h82v-556h-82v556z" />
<glyph unicode="&#xad38;" d="M790 823v-680h-82v680h82zM540 442l-80 10q24 112 24 236h-367v67h447v-55q0 -146 -24 -258zM637 381l6 -61q-229 -33 -577 -35l-13 69q98 0 206 3v189h80v-187q182 7 298 22zM293 13h522v-67h-604v256h82v-189z" />
<glyph unicode="&#xad3c;" d="M790 823v-489h-82v489h82zM534 500l-79 7q22 101 22 201h-357v66h437v-44q0 -129 -23 -230zM637 457l6 -59q-216 -33 -577 -35l-12 66q96 0 204 3v165h79v-163q186 7 300 23zM276 -1h549v-63h-629v213h513v83h-516v61h597v-203h-514v-91z" />
<glyph unicode="&#xad44;" d="M538 481l-81 6q21 103 21 214h-357v66h437v-49q0 -134 -20 -237zM637 427l6 -59q-208 -35 -577 -37l-11 66q129 0 201 2v165h80v-162q178 7 301 25zM280 173v-169h429v169h-429zM200 -62v301h589v-301h-589zM707 823h82v-538h-82v538z" />
<glyph unicode="&#xad45;" d="M538 488l-79 7q21 96 21 211h-359v65h438v-54q0 -133 -21 -229zM637 434l6 -59q-236 -34 -577 -34l-11 66q61 0 203 2v160h80v-157q182 7 299 22zM708 4v107h-430v-107h430zM708 176v102h81v-340h-593v340h82v-102h430zM707 821h82v-503h-82v503z" />
<glyph unicode="&#xad47;" d="M789 823v-627h-82v627h82zM538 469l-80 10q20 90 20 219h-357v67h437v-63q0 -139 -20 -233zM637 410l6 -60q-242 -35 -577 -35l-11 68q95 0 201 3v170h80v-167q195 8 301 21zM535 259v-30q0 -85 87 -149t212 -83l-32 -64q-104 18 -186.5 65.5t-121.5 118.5 q-39 -71 -121.5 -118.5t-187.5 -65.5l-32 64q125 19 212 83t87 149v30h83z" />
<glyph unicode="&#xad49;" d="M789 824v-565h-82v565h82zM537 464l-79 10q21 100 21 227h-358v66h437v-61q0 -142 -21 -242zM637 412l6 -59q-217 -34 -577 -34l-11 66q130 0 201 2v169h80v-167q180 5 301 23zM492 -9q101 0 159 26t58 72t-58 71.5t-159 25.5q-102 0 -160 -25.5t-58 -71.5t58 -72 t160 -26zM492 250q141 0 221.5 -42.5t80.5 -118.5q0 -77 -80.5 -119.5t-221.5 -42.5t-221.5 42.5t-80.5 119.5q0 76 80.5 118.5t221.5 42.5z" />
<glyph unicode="&#xad50;" d="M687 634v32h-550v67h632v-99q0 -231 -32 -399l-81 10q31 160 31 389zM555 119h309v-67h-811v67h199v297h81v-297h141v297h81v-297z" />
<glyph unicode="&#xad54;" d="M686 701v3h-540v67h621v-70q0 -155 -21 -263l-81 8q21 105 21 255zM238 215v-203h545v-66h-627v269h82zM566 369h297v-67h-809v67h206v185h81v-185h144v185h81v-185z" />
<glyph unicode="&#xad58;" d="M750 517l-80 9q16 81 16 199h-539v66h620v-61q0 -128 -17 -213zM233 102v-100h554v-65h-635v225h531v90h-534v65h616v-215h-532zM564 462h299v-67h-808v67h206v161h81v-161h141v161h81v-161z" />
<glyph unicode="&#xad61;" d="M743 485l-80 10q22 95 22 226h-540v67h621v-63q0 -142 -23 -240zM676 3v119h-436v-119h436zM676 185v110h82v-357h-600v357h82v-110h436zM561 430h303v-67h-810v67h207v166h81v-166h138v166h81v-166z" />
<glyph unicode="&#xad63;" d="M690 705v12h-542v66h623v-78q0 -148 -22 -242l-80 9q21 92 21 233zM497 266v-41q0 -85 87.5 -149t214.5 -82l-32 -64q-106 18 -189.5 65.5t-121.5 117.5q-40 -70 -124 -117.5t-190 -65.5l-31 64q128 18 215.5 82t87.5 149v41h83zM563 397h301v-67h-810v67h208v185h81 v-185h139v185h81v-185z" />
<glyph unicode="&#xad6c;" d="M865 379v-67h-366v-387h-83v387h-362v67h595q28 129 28 308v12h-522v66h602v-78q0 -179 -25 -308h133z" />
<glyph unicode="&#xad6d;" d="M867 393h-367v-164h267v-302h-82v236h-546v66h279v164h-365v67h604q24 108 24 254h-524v66h605v-65q0 -149 -22 -255h127v-67z" />
<glyph unicode="&#xad70;" d="M237 226v-213h543v-67h-625v280h82zM740 427h127v-66h-363v-216h-82v216h-370v66h605q24 116 24 277v5h-525v66h606v-71q0 -162 -22 -277z" />
<glyph unicode="&#xad73;" d="M867 399h-367v-148h267v-66h-533v-181h540v-66h-622v313h266v148h-366v66h606q23 105 23 248h-525v67h606v-65q0 -146 -21 -250h126v-66z" />
<glyph unicode="&#xad74;" d="M867 434h-367v-116h265v-217h-532v-99h554v-65h-635v223h531v93h-534v65h268v116h-364v66h608q20 100 20 222h-524v65h605v-56q0 -135 -18 -231h123v-66z" />
<glyph unicode="&#xad75;" d="M221 89v-90q183 0 283 22l8 -62q-108 -23 -315 -23h-55v214h216v81h-218v63h297v-205h-216zM485 227v67h285v-364h-81v297h-204zM743 495h123v-67h-368v-131h-81v131h-364v67h607q21 102 21 227h-525v66h606v-56q0 -138 -19 -237z" />
<glyph unicode="&#xad76;" d="M554 237v-239h148v239h-148zM865 426h-367v-128h275v-362h-289v356h-58v-197h-206v-97q147 0 228 15l7 -61q-85 -16 -267 -16h-47v218h206v83h-209v61h279v128h-364v66h606q22 104 22 230h-525v66h606v-57q0 -138 -20 -239h123v-66z" />
<glyph unicode="&#xad7b;" d="M215 95v-93q154 0 237 15l9 -61q-87 -16 -274 -16h-48v214h199v83h-202v61h279v-203h-200zM635 -18q37 0 59 17t22 47t-22 47.5t-59 17.5q-36 0 -58 -17.5t-22 -47.5t22 -47t58 -17zM635 167q68 0 110 -32.5t42 -88.5q0 -55 -42 -87.5t-110 -32.5q-66 0 -108 32.5 t-42 87.5t42 88t108 33zM675 340v-82h151v-61h-377v61h147v82h79zM742 496h124v-66h-370v-130h-82v130h-361v66h607q21 104 21 228h-525v66h605v-55q0 -138 -19 -239z" />
<glyph unicode="&#xad7c;" d="M684 5v180h-451v-180h451zM867 400h-367v-150h265v-311h-612v311h264v150h-365v67h605q23 106 23 249h-526v67h607v-65q0 -146 -22 -251h128v-67z" />
<glyph unicode="&#xad7d;" d="M678 4v118h-440v-118h440zM678 187v115h82v-363h-603v363h81v-115h440zM740 473h127v-67h-369v-157h-82v157h-364v67h606q22 104 22 246h-526v67h607v-65q0 -144 -21 -248z" />
<glyph unicode="&#xad7f;" d="M500 225v-31q0 -75 86.5 -130.5t212.5 -70.5l-27 -63q-109 15 -192.5 57.5t-121.5 107.5q-40 -64 -124 -107t-191 -58l-28 63q125 16 212.5 71.5t87.5 129.5v31h85zM739 469h128v-67h-368v-139h-82v139h-364v67h604q24 113 24 250h-524v67h604v-59q0 -147 -22 -258z" />
<glyph unicode="&#xad81;" d="M686 93q0 47 -60.5 73t-166.5 26q-108 0 -169 -26t-61 -73q0 -48 60.5 -74t169.5 -26q107 0 167 26t60 74zM866 398h-366v-141q126 -6 197 -48.5t71 -115.5q0 -79 -82 -122.5t-227 -43.5q-147 0 -229.5 43.5t-82.5 122.5q0 73 71 115.5t199 48.5v141h-364v66h603 q25 108 25 254h-524v67h605v-65q0 -148 -23 -256h127v-66z" />
<glyph unicode="&#xad82;" d="M867 408h-367v-142h270v-66h-267q8 -79 94 -135t208 -72l-30 -63q-107 16 -192 62t-124 116q-39 -70 -123.5 -116t-191.5 -62l-30 63q122 16 208 72t94 135h-267v66h269v142h-365v67h606q22 109 22 241h-524v67h604v-56q0 -144 -21 -252h127v-67z" />
<glyph unicode="&#xad88;" d="M639 429l6 -59q-109 -16 -275 -25v-370h-82v366q-109 -4 -231 -4l-12 67q261 2 395 10q23 130 23 269h-340v67h421v-50q0 -155 -22 -281q22 2 61 5.5t56 4.5zM709 822h82v-896h-82v264h-203v65h203v567z" />
<glyph unicode="&#xad89;" d="M285 250v187q-109 -4 -229 -4l-11 67q265 2 400 10q21 104 21 204h-334v66h413v-43q0 -125 -18 -222q66 6 102 8l6 -58q-94 -14 -268 -24v-191h-82zM182 146v66h610v-284h-82v218h-528zM710 823h82v-574h-82v77h-197v62h197v435z" />
<glyph unicode="&#xad8c;" d="M514 334h195v488h82v-677h-82v124h-195v65zM299 203v203q-109 -5 -242 -5l-11 67q261 2 398 12q20 108 22 222h-338v66h418v-34q0 -134 -19 -247q70 6 101 11l6 -59q-112 -21 -253 -29v-207h-82zM260 13h553v-67h-634v273h81v-206z" />
<glyph unicode="&#xad90;" d="M513 430h197v393h82v-509h-82v58h-197v58zM284 315v153q-101 -5 -226 -5l-10 65q241 0 396 11q17 86 21 180h-329v66h408v-24q0 -115 -18 -216q72 8 106 13l5 -58q-125 -20 -271 -28v-157h-82zM273 -3h553v-61h-633v206h518v78h-520v61h601v-198h-519v-86z" />
<glyph unicode="&#xad9c;" d="M513 409h197v414h82v-541h-82v65h-197v62zM285 284v170q-111 -4 -229 -4l-11 68q245 0 402 11q17 86 19 190h-334v67h413v-42q0 -117 -16 -209q75 9 100 13l6 -60q-120 -21 -268 -29v-175h-82zM690 250v-28q0 -70 46.5 -130.5t128.5 -87.5l-40 -61q-127 46 -175 163 q-45 -124 -159 -171q-115 47 -160 169q-50 -115 -174 -161l-40 61q81 29 128 89t47 129v28h79v-28q0 -59 30.5 -115.5t88.5 -92.5q59 36 89.5 93t30.5 115v28h80z" />
<glyph unicode="&#xad9d;" d="M513 389h196v434h82v-571h-82v76h-196v61zM284 262v174q-102 -5 -226 -5l-10 66q261 2 398 12q21 104 21 205h-333v66h412v-45q0 -123 -19 -219q101 12 104 12l5 -58q-117 -21 -270 -30v-178h-82zM499 -10q103 0 160.5 25.5t57.5 70.5q0 46 -57 70.5t-161 24.5t-162 -25 t-58 -70t58.5 -70.5t161.5 -25.5zM499 245q141 0 221 -41.5t80 -117.5t-80 -117.5t-221 -41.5q-143 0 -223 41.5t-80 117.5t80 117.5t223 41.5z" />
<glyph unicode="&#xada4;" d="M510 431l6 -59q-93 -18 -202 -24v-345h-79v341q-91 -4 -184 -4l-9 67q185 0 309 9q23 121 23 240h-285v67h363v-43q0 -142 -21 -259q50 5 79 10zM565 257v545h77v-826h-77v216h-166v65h166zM734 823h79v-896h-79v896z" />
<glyph unicode="&#xadb7;" d="M808 823v-648h-79v648h79zM400 375h162v430h78v-590h-78v99h-162v61zM243 206v213q-92 -4 -188 -4l-11 67q181 0 308 8q19 95 21 199h-276v67h353v-39q0 -122 -19 -221q32 2 85 10l7 -59q-91 -18 -202 -24v-217h-78zM536 224v-22q0 -80 86.5 -137.5t213.5 -73.5l-31 -63 q-105 16 -188 59t-122 109q-39 -66 -122.5 -109t-190.5 -59l-29 63q129 16 215 73t86 138v22h82z" />
<glyph unicode="&#xadc0;" d="M649 420l7 -61q-111 -16 -276 -25v-357h-82v354q-140 -5 -238 -5l-12 69q259 2 391 9q26 137 28 283h-341v66h421v-36q0 -162 -25 -308q20 2 62.5 5.5t64.5 5.5zM713 823h82v-897h-82v897z" />
<glyph unicode="&#xadc1;" d="M382 410v-166h402v-321h-82v255h-524v66h122v162q-103 -6 -241 -6l-12 68q241 0 395 11q22 104 22 231h-331v67h411v-56q0 -136 -19 -236q49 5 110 14l6 -60q-132 -22 -259 -29zM702 823h82v-531h-82v531z" />
<glyph unicode="&#xadc4;" d="M784 823v-673h-82v673h82zM323 187v197q-113 -6 -260 -6l-12 68q245 0 401 11q19 116 21 238h-339v66h420v-33q0 -140 -19 -265q68 8 102 13l6 -60q-114 -19 -238 -27v-202h-82zM263 13h548v-67h-629v271h81v-204z" />
<glyph unicode="&#xadc8;" d="M784 822v-468h-82v468h82zM276 0h542v-64h-624v224h508v91h-510v63h106v128q-76 -3 -233 -5l-11 67q260 2 393 9q18 106 20 204h-331v66h411v-32q0 -125 -18 -233q72 6 106 9l7 -58q-113 -16 -263 -23v-132h405v-215h-508v-99z" />
<glyph unicode="&#xadd0;" d="M703 4v183h-422v-183h422zM383 403v-151h401v-314h-583v314h100v146q-109 -5 -241 -5l-12 67q260 2 397 12q19 104 19 233h-330v67h410v-60q0 -136 -15 -233q55 5 106 12l6 -59q-129 -23 -258 -29zM702 823h82v-520h-82v520z" />
<glyph unicode="&#xadd1;" d="M298 280v153q-106 -5 -238 -5l-12 68q240 0 398 9q21 103 21 215h-334v66h415v-52q0 -128 -18 -224q70 6 104 10l6 -59q-123 -18 -259 -24v-157h-83zM703 4v108h-429v-108h429zM703 176v99h81v-337h-591v337h81v-99h429zM702 823h82v-508h-82v508z" />
<glyph unicode="&#xadd3;" d="M783 822v-634h-83v634h83zM290 208v190q-108 -4 -225 -4l-11 68q239 0 392 11q21 111 21 234h-330v67h410v-54q0 -138 -17 -242q77 9 103 13l7 -61q-124 -20 -268 -28v-194h-82zM556 259v-38q0 -85 85 -147t209 -80l-31 -65q-103 19 -184.5 65.5t-119.5 115.5 q-39 -69 -121.5 -115.5t-188.5 -65.5l-32 65q127 18 213.5 80.5t86.5 146.5v38h83z" />
<glyph unicode="&#xaddc;" d="M864 374v-67h-214v-380h-81v380h-225v-380h-82v380h-208v67h590q28 142 28 324h-516v68h597v-67q0 -183 -27 -325h138z" />
<glyph unicode="&#xade0;" d="M233 227v-214h553v-67h-634v281h81zM741 438h126v-67h-226v-216h-80v216h-158v-216h-80v216h-270v67h606q22 113 22 269v1h-526v67h607v-68q0 -158 -21 -269z" />
<glyph unicode="&#xade4;" d="M566 318v117h-213v-117h213zM867 435h-219v-117h117v-217h-532v-99h554v-65h-635v223h531v93h-534v65h122v117h-218v66h608q20 100 20 221h-524v66h605v-57q0 -134 -18 -230h123v-66z" />
<glyph unicode="&#xadf8;" d="M675 638v23h-534v67h577v-1h38v-89q0 -243 -35 -437l-82 9q36 183 36 428zM54 125h811v-68h-811v68z" />
<glyph unicode="&#xadf9;" d="M140 178v67h628v-322h-82v255h-546zM739 445h128v-66h-814v66h604q24 121 24 268h-524v67h605v-61q0 -156 -23 -274z" />
<glyph unicode="&#xadfc;" d="M241 243v-229h547v-67h-628v296h81zM739 410h128v-66h-815v66h604q25 124 25 290v3h-525v67h606v-70q0 -168 -23 -290z" />
<glyph unicode="&#xadff;" d="M234 191v-187h540v-66h-622v319h615v-66h-533zM738 450h128v-67h-814v67h604q24 110 24 260h-524v67h605v-66q0 -152 -23 -261z" />
<glyph unicode="&#xae00;" d="M233 107v-105h554v-65h-635v232h531v99h-534v65h616v-226h-532zM742 489h125v-66h-814v66h607q21 104 21 230h-524v66h605v-57q0 -138 -20 -239z" />
<glyph unicode="&#xae01;" d="M221 94v-95q184 0 283 23l9 -62q-103 -23 -316 -23h-55v218h216v86h-218v62h297v-209h-216zM485 237v66h285v-373h-81v307h-204zM739 470h127v-67h-813v67h604q24 111 24 246h-525v67h606v-61q0 -144 -23 -252z" />
<glyph unicode="&#xae08;" d="M233 191v-187h451v187h-451zM153 -62v319h612v-319h-612zM738 445h129v-66h-815v66h603q26 112 26 264h-525v66h606v-66q0 -152 -24 -264z" />
<glyph unicode="&#xae09;" d="M680 4v123h-441v-123h441zM680 191v118h81v-371h-603v371h81v-118h441zM738 457h129v-67h-815v67h604q25 110 25 258h-525v67h606v-65q0 -149 -24 -260z" />
<glyph unicode="&#xae0b;" d="M497 270v-41q0 -86 87 -151.5t214 -84.5l-31 -63q-106 18 -189 66t-122 120q-39 -72 -122.5 -120t-189.5 -66l-32 63q128 19 215 84t87 152v41h83zM733 422h130v-67h-809v67h597q27 125 27 288h-525v66h605v-63q0 -164 -25 -291z" />
<glyph unicode="&#xae0d;" d="M458 -6q107 0 167.5 27t60.5 75q0 49 -60.5 76t-167.5 27q-108 0 -168.5 -27t-60.5 -76q0 -48 61 -75t168 -27zM458 265q145 0 227.5 -44.5t82.5 -124.5t-82.5 -124t-227.5 -44q-146 0 -228.5 44t-82.5 124t82.5 124.5t228.5 44.5zM737 439h130v-67h-814v67h601 q27 115 27 270h-524v66h605v-66q0 -157 -25 -270z" />
<glyph unicode="&#xae14;" d="M485 649h-367v67h448v-68q0 -188 -28 -332l-81 11q28 139 28 322zM66 148l-10 69q379 0 587 30l4 -62q-222 -37 -581 -37zM698 824h82v-898h-82v898z" />
<glyph unicode="&#xae30;" d="M106 726h420q0 -429 -417 -633l-44 67q351 168 378 500h-337v66zM707 823h82v-897h-82v897z" />
<glyph unicode="&#xae31;" d="M113 766h410q0 -169 -112.5 -288.5t-313.5 -174.5l-33 65q166 45 263 130.5t108 200.5h-322v67zM189 188v67h600v-330h-82v263h-518zM707 823h82v-526h-82v526z" />
<glyph unicode="&#xae34;" d="M788 822v-651h-82v651h82zM115 755h413q0 -172 -113.5 -298.5t-314.5 -188.5l-32 66q163 50 261 142t111 211h-325v68zM289 13h522v-67h-605v277h83v-210z" />
<glyph unicode="&#xae37;" d="M792 823v-512h-82v512h82zM108 766h410q0 -169 -110.5 -287.5t-311.5 -173.5l-33 65q165 44 260.5 129t107.5 199h-323v68zM296 4h514v-66h-596v327h580v-67h-498v-194z" />
<glyph unicode="&#xae38;" d="M789 823v-458h-82v458h82zM113 779h408q0 -168 -110.5 -277t-312.5 -155l-30 66q167 37 260.5 114t103.5 185h-319v67zM292 0h527v-65h-609v230h497v92h-499v65h581v-218h-497v-104z" />
<glyph unicode="&#xae3a;" d="M112 776h409q0 -166 -110.5 -276.5t-311.5 -157.5l-31 67q166 37 260 115t105 186h-321v66zM246 97v-97q143 0 225 16l7 -63q-88 -17 -263 -17h-47v221h208v84h-210v63h288v-207h-208zM577 242v-243h141v243h-141zM506 -64v368h283v-368h-283zM706 823h83v-475h-83v475z " />
<glyph unicode="&#xae40;" d="M110 766h413q0 -169 -113 -287t-314 -172l-33 65q165 43 262.5 128t109.5 199h-325v67zM289 208v-203h419v203h-419zM209 -61v334h580v-334h-580zM707 823h82v-507h-82v507z" />
<glyph unicode="&#xae41;" d="M112 770h410q0 -169 -109 -281t-316 -160l-31 65q171 39 264.5 119t103.5 191h-322v66zM707 4v116h-417v-116h417zM707 184v113h81v-359h-579v359h81v-113h417zM706 823h82v-488h-82v488z" />
<glyph unicode="&#xae43;" d="M787 822v-601h-82v601h82zM113 753h412q0 -172 -111.5 -296t-312.5 -185l-32 65q163 49 259.5 140t109.5 209h-325v67zM540 283v-36q0 -93 87 -163t211 -91l-33 -64q-104 20 -186 72.5t-121 129.5q-39 -77 -122 -129.5t-188 -72.5l-33 64q126 21 213.5 90.5t87.5 163.5 v36h84z" />
<glyph unicode="&#xae45;" d="M786 822v-539h-82v539h82zM111 756h412q0 -168 -115 -291t-311 -181l-35 64q162 47 261 136t112 206h-324v66zM490 -7q102 0 161 28.5t59 79.5t-59 80t-161 29t-160.5 -29t-58.5 -80t58.5 -79.5t160.5 -28.5zM490 275q140 0 221 -46t81 -128q0 -81 -81 -127.5t-221 -46.5 q-139 0 -220 46.5t-81 127.5q0 82 81 128t220 46z" />
<glyph unicode="&#xae46;" d="M787 823v-505h-83v505h83zM110 765h414q0 -169 -112.5 -285.5t-314.5 -169.5l-31 67q165 41 261.5 125.5t107.5 196.5h-325v66zM546 199q0 -74 84 -132.5t205 -75.5l-30 -62q-101 15 -182 60t-119 109q-38 -64 -118.5 -108.5t-180.5 -60.5l-29 62q119 17 202.5 75.5 t83.5 132.5v1h-251v66h588v-66z" />
<glyph unicode="&#xae4a;" d="M788 823v-492h-82v492h82zM114 762h415q0 -167 -113 -282t-314 -164l-32 64q166 41 263 123t109 192h-328v67zM406 216v-210h192v210h-192zM679 6h134v-66h-619v66h132v210h-123v66h599v-66h-123v-210z" />
<glyph unicode="&#xae4c;" d="M79 726h243q0 -379 -208 -598l-64 46q179 186 194 484h-165v68zM352 726h215q0 -90 -8 -168.5t-28 -166.5t-60.5 -170.5t-99.5 -152.5l-66 45q172 198 185 545h-138v68zM891 453v-68h-133v-459h-82v897h82v-370h133z" />
<glyph unicode="&#xae4d;" d="M370 304l-59 48q88 68 130 150.5t50 189.5h-136v67h214q0 -145 -45.5 -256t-153.5 -199zM82 759h237q0 -137 -48.5 -234t-160.5 -175l-52 52q87 58 130 126.5t52 163.5h-158v67zM166 182v67h583v-325h-82v258h-501zM882 583v-68h-133v-226h-82v533h82v-239h133z" />
<glyph unicode="&#xae4e;" d="M370 315l-59 48q87 67 129.5 148t50.5 186h-136v67h214q0 -143 -46 -252.5t-153 -196.5zM82 764h237q0 -136 -49 -233t-159 -173l-53 52q87 57 130 124.5t52 162.5h-158v67zM137 192l1 67h288v-334h-81v267h-208zM469 192v67h280v-334h-81v267h-199zM882 596v-68h-133 v-222h-82v517h82v-227h133z" />
<glyph unicode="&#xae50;" d="M363 260l-55 52q167 136 183 367h-137v67h215q0 -152 -46.5 -272t-159.5 -214zM81 746h237q0 -142 -48.5 -250t-159.5 -194l-53 52q87 66 131 143.5t53 181.5h-160v67zM268 219v-206h517v-67h-600v273h83zM749 538h133v-68h-133v-303h-82v656h82v-285z" />
<glyph unicode="&#xae54;" d="M369 359l-57 48q85 60 127 131t51 168h-139v67h217q0 -136 -46.5 -235.5t-152.5 -178.5zM77 773h238q0 -127 -49.5 -214.5t-154.5 -159.5l-54 52q81 53 124.5 111.5t54.5 143.5h-159v67zM260 103v-100h525v-65h-606v227h490v93h-492v65h573v-220h-490zM750 627h132v-68 h-132v-194h-82v458h82v-196z" />
<glyph unicode="&#xae56;" d="M369 349l-57 48q85 61 127 134.5t51 172.5h-140v66h218q0 -138 -46 -239.5t-153 -181.5zM77 770h239q0 -126 -49.5 -214t-154.5 -161l-54 52q82 53 125.5 112t53.5 145h-160v66zM211 94v-96q134 0 221 16l8 -63q-87 -16 -261 -16h-47v220h203v83h-206v63h285v-207h-203z M540 239v-242h137v242h-137zM469 -65v366h280v-366h-280zM882 623v-67h-133v-207h-82v474h82v-200h133z" />
<glyph unicode="&#xae5c;" d="M370 309l-60 47q87 68 129 150.5t51 190.5h-137v67h215q0 -145 -45.5 -256t-152.5 -199zM81 764h238q0 -137 -48.5 -235.5t-159.5 -175.5l-53 52q87 57 130 126.5t52 165.5h-159v67zM266 196v-192h402v192h-402zM186 -62v323h563v-323h-563zM882 603v-68h-133v-231h-82 v519h82v-220h133z" />
<glyph unicode="&#xae5d;" d="M372 322l-59 48q85 67 127 146t50 184h-137v67h215q0 -143 -45 -251t-151 -194zM81 767h238q0 -135 -48.5 -230.5t-158.5 -170.5l-54 51q87 56 130 122.5t52 160.5h-159v67zM668 4v113h-403v-113h403zM668 182v110h81v-355h-565v355h81v-110h403zM882 618v-68h-133v-214 h-82v486h82v-204h133z" />
<glyph unicode="&#xae5f;" d="M370 294l-60 48q165 129 180 344h-137v66h215q0 -145 -45 -257t-153 -201zM80 752h237q0 -137 -47.5 -235t-156.5 -177l-54 52q86 58 128.5 127.5t51.5 166.5h-159v66zM519 269v-24q0 -92 86.5 -160.5t212.5 -88.5l-33 -65q-103 19 -185 70t-121 125q-39 -74 -122 -125 t-186 -70l-33 65q126 20 213 88.5t87 160.5v24h81zM749 573h133v-68h-133v-281h-82v599h82v-250z" />
<glyph unicode="&#xae60;" d="M372 309l-59 48q87 67 128.5 149t50.5 190h-136v66h215q0 -144 -45.5 -254.5t-153.5 -198.5zM114 353l-53 52q87 58 130 126.5t52 164.5h-159v66h237q0 -136 -48 -234t-159 -175zM679 272v-54q0 -72 48 -135t132 -92l-41 -60q-132 50 -180 171q-47 -129 -164 -179 q-121 47 -167 176q-52 -119 -177 -168l-42 60q83 31 131.5 95t48.5 132v54h79v-54q0 -63 32 -121t93 -94q61 39 94 99t33 116v54h80zM749 603h133v-69h-133v-222h-82v511h82v-220z" />
<glyph unicode="&#xae61;" d="M370 313l-59 48q87 66 128.5 147t50.5 189h-136v67h214q0 -144 -45.5 -254t-152.5 -197zM82 764h237q0 -137 -48.5 -235.5t-159.5 -175.5l-53 52q87 57 130 126t52 166h-158v67zM464 -7q100 0 156.5 27t56.5 76q0 48 -56.5 75t-156.5 27t-157 -27t-57 -75q0 -49 57 -76 t157 -27zM464 263q137 0 216 -44t79 -123q0 -80 -79 -124t-216 -44q-138 0 -217 44t-79 124q0 79 79 123t217 44zM749 599h133v-68h-133v-238h-82v530h82v-224z" />
<glyph unicode="&#xae65;" d="M369 355l-57 48q85 59 127 130.5t51 167.5h-138v67h216q0 -135 -46.5 -234.5t-152.5 -178.5zM78 768h237q0 -127 -49.5 -214.5t-154.5 -159.5l-54 52q82 53 125.5 111.5t53.5 143.5h-158v67zM268 87v-88h506v-61h-587v353h568v-61h-487v-83h476v-60h-476zM749 616h133 v-68h-133v-209h-82v483h82v-206z" />
<glyph unicode="&#xae68;" d="M74 715h201q0 -363 -155 -567l-65 39q138 173 150 461h-131v67zM306 715h179q0 -85 -4.5 -153.5t-19 -156.5t-47 -170t-82.5 -150l-67 37q141 184 149 526h-108v67zM747 824h79v-897h-79v467h-108v-424h-78v833h78v-342h108v363z" />
<glyph unicode="&#xae69;" d="M329 299l-65 42q75 73 109 158t40 195h-109v66h186q0 -145 -35 -256.5t-126 -204.5zM76 760h203q0 -135 -36 -230.5t-128 -178.5l-61 47q73 62 107.5 131t41.5 165h-127v66zM202 186v66h614v-326h-82v260h-532zM737 822h79v-527h-79v235h-106v-229h-78v506h78v-210h106 v225z" />
<glyph unicode="&#xae6c;" d="M631 485v-299h-78v621h78v-255h106v270h79v-665h-79v328h-106zM332 278l-65 42q74 76 107.5 163t39.5 200h-110v66h185q0 -148 -33.5 -261.5t-123.5 -209.5zM75 749h205q0 -138 -36 -237t-128 -184l-61 46q74 65 108 137t41 172h-129v66zM297 13h546v-67h-628v282h82 v-215z" />
<glyph unicode="&#xae70;" d="M631 551v-188h-78v443h78v-188h106v204h79v-465h-79v194h-106zM328 347l-62 45q73 65 106.5 138.5t40.5 172.5h-111v67h187q0 -138 -34.5 -238t-126.5 -185zM76 770h203q0 -127 -36 -213.5t-127 -162.5l-58 49q71 55 104.5 114t41.5 146h-128v67zM307 3h542v-65h-625v224 h509v89h-511v64h594v-214h-509v-98z" />
<glyph unicode="&#xae78;" d="M335 310l-67 43q73 72 105.5 155t38.5 191h-108v66h185q0 -145 -33 -253.5t-121 -201.5zM73 765h206q0 -134 -35 -228t-126 -175l-61 48q72 60 105.5 127t40.5 162h-130v66zM304 200v-195h431v195h-431zM224 -61v326h592v-326h-592zM737 823h79v-515h-79v221h-106v-215 h-78v493h78v-211h106v227z" />
<glyph unicode="&#xae79;" d="M340 328l-65 43q71 71 102 150.5t37 184.5h-108v66h183q0 -143 -31 -248t-118 -196zM76 772h205q0 -133 -36 -225.5t-127 -172.5l-60 46q72 60 106 126.5t42 159.5h-130v66zM734 4v118h-428v-118h428zM734 187v107h81v-357h-590v357h81v-107h428zM737 822h78v-488h-78 v205h-106v-199h-77v465h77v-199h106v216z" />
<glyph unicode="&#xae7b;" d="M631 525v-210h-78v491h78v-214h106v231h79v-584h-79v286h-106zM333 283l-66 41q74 77 107.5 164.5t39.5 201.5h-111v66h186q0 -148 -33.5 -262.5t-122.5 -210.5zM75 756h204q0 -138 -34 -236t-125 -183l-61 46q72 64 105 135.5t40 171.5h-129v66zM560 277v-39 q0 -86 90.5 -155t213.5 -89l-33 -64q-103 19 -187.5 70t-124.5 125q-39 -74 -124 -125t-188 -70l-32 64q123 20 213 89t90 155v39h82z" />
<glyph unicode="&#xae7c;" d="M631 529v-217h-77v494h77v-210h106v226h79v-517h-79v224h-106zM334 313l-64 43q73 71 105 151t38 186h-109v67h184q0 -144 -32.5 -250t-121.5 -197zM118 360l-59 46q72 61 105 127.5t40 159.5h-130v67h206q0 -134 -35.5 -227t-126.5 -173zM703 269v-47q0 -72 48 -135 t131 -90l-40 -62q-129 49 -180 171q-47 -129 -164 -178q-121 46 -166 175q-55 -120 -179 -168l-41 62q82 29 131.5 93t49.5 132v47h79v-47q0 -63 32 -121t92 -93q60 38 93.5 98t33.5 116v47h80z" />
<glyph unicode="&#xae7d;" d="M632 517v-210h-77v499h77v-222h105v238h79v-547h-79v242h-105zM332 298l-65 43q73 71 106.5 153.5t39.5 189.5h-109v66h184q0 -145 -33.5 -253t-122.5 -199zM74 750h206q0 -134 -35 -228t-126 -175l-61 46q72 62 105.5 129t40.5 162h-130v66zM521 -9q104 0 163 27t59 75 t-59.5 75t-162.5 27q-105 0 -164.5 -27t-59.5 -75t59.5 -75t164.5 -27zM521 259q142 0 223.5 -44t81.5 -122t-81.5 -122t-223.5 -44q-143 0 -225 44t-82 122t82.5 122t224.5 44z" />
<glyph unicode="&#xae84;" d="M79 726h243q0 -178 -46.5 -327t-161.5 -271l-64 46q179 186 194 484h-165v68zM352 726h215q0 -90 -8 -168.5t-28 -166.5t-60.5 -170.5t-99.5 -152.5l-66 45q172 198 185 545h-138v68zM891 514h-133v-200h133v-68h-133v-320h-82v897h82v-240h133v-69z" />
<glyph unicode="&#xae85;" d="M370 304l-59 48q87 68 129.5 151t50.5 189h-136v67h214q0 -145 -45.5 -256t-153.5 -199zM82 759h237q0 -136 -49 -234t-160 -175l-52 52q87 58 130 126.5t52 163.5h-158v67zM166 182v67h583v-325h-82v258h-501zM880 620h-131v-121h131v-67h-131v-143h-82v533h82v-134h131 v-68z" />
<glyph unicode="&#xae8c;" d="M369 360l-57 48q85 59 127 130.5t51 167.5h-139v67h217q0 -135 -46.5 -234.5t-152.5 -178.5zM77 773h238q0 -127 -49.5 -214t-154.5 -160l-54 52q81 53 124.5 111.5t54.5 143.5h-159v67zM260 103v-100h525v-65h-606v227h490v93h-492v65h573v-220h-490zM879 647h-129v-100 h129v-65h-129v-117h-82v458h82v-110h129v-66z" />
<glyph unicode="&#xaebc;" d="M79 726h243q0 -178 -46.5 -327t-161.5 -271l-64 47q179 186 194 483h-165v68zM706 823h82v-896h-82v478h-174q-47 -199 -163 -336l-66 45q172 197 185 544h-138v68h215q0 -137 -19 -254h160v351z" />
<glyph unicode="&#xaebd;" d="M80 761h236q0 -137 -48 -235.5t-159 -177.5l-53 52q87 60 130 128.5t52 165.5h-158v67zM187 182v67h601v-322h-82v255h-519zM706 822h82v-533h-82v232h-180q-47 -128 -160 -220l-58 49q164 129 179 344h-138v67h215q0 -97 -17 -173h159v234z" />
<glyph unicode="&#xaebe;" d="M80 764h236q0 -136 -48 -233t-158 -175l-54 51q87 58 130 126.5t52 163.5h-158v67zM162 191v67h293v-331h-81v264h-212zM500 191v67h288v-331h-81v264h-207zM706 823h82v-525h-82v224h-182q-46 -120 -158 -210l-57 48q86 68 128 149t50 188h-139v67h216q0 -95 -19 -175 h161v234z" />
<glyph unicode="&#xaec0;" d="M367 265l-57 51q166 135 180 365h-137v67h215q0 -109 -21 -197h159v270h82v-657h-82v321h-179q-49 -126 -160 -220zM83 748h237q0 -142 -46.5 -248t-157.5 -190l-54 52q88 64 130 140t50 179h-159v67zM290 13h521v-67h-603v270h82v-203z" />
<glyph unicode="&#xaec4;" d="M371 361l-58 48q85 60 126.5 131.5t49.5 169.5h-140v66h217q0 -92 -19 -165h159v212h82v-462h-82v184h-182q-47 -104 -153 -184zM83 776h235q0 -126 -49.5 -212t-153.5 -158l-54 51q81 53 124 110.5t54 142.5h-156v66zM287 -2h529v-65h-610v229h500v91h-502v65h584v-217 h-501v-103z" />
<glyph unicode="&#xaecc;" d="M79 763h237q0 -136 -48 -233.5t-159 -174.5l-53 52q87 58 129.5 126t51.5 163h-158v67zM283 207v-202h425v202h-425zM203 -61v333h585v-333h-585zM706 823h82v-509h-82v211h-181q-44 -121 -156 -215l-59 49q85 67 126.5 149t50.5 188h-138v67h215q0 -95 -17 -171h159v231 z" />
<glyph unicode="&#xaecd;" d="M84 769h235q0 -134 -48.5 -230t-158.5 -172l-53 52q86 57 129 123.5t52 160.5h-156v66zM708 4v117h-418v-117h418zM708 185v112h80v-359h-579v359h81v-112h418zM706 822h82v-481h-82v190h-178q-47 -118 -154 -207l-59 49q85 67 125.5 146.5t48.5 183.5h-137v66h215 q0 -91 -18 -171h157v224z" />
<glyph unicode="&#xaecf;" d="M371 294l-59 49q162 130 177 344h-137v66h215q0 -104 -21 -187h160v256h82v-613h-82v290h-182q-48 -116 -153 -205zM83 753h235q0 -137 -48 -235t-159 -177l-53 52q87 59 130 128t52 166h-157v66zM539 286v-35q0 -93 86.5 -163t211.5 -92l-34 -65q-103 20 -185 71.5 t-120 127.5q-39 -76 -121.5 -128.5t-186.5 -72.5l-33 65q126 22 213 92.5t87 164.5v35h82z" />
<glyph unicode="&#xaed0;" d="M369 316l-58 49q85 67 126.5 147t49.5 185h-138v67h215q0 -96 -19 -178h162v237h82v-515h-82v212h-184q-46 -115 -154 -204zM109 356l-53 52q87 57 130 125.5t52 163.5h-158v67h236q0 -137 -48 -234t-159 -174zM688 278v-56q0 -72 48 -134.5t132 -90.5l-41 -62 q-132 50 -180 171q-47 -127 -165 -179q-122 49 -166 176q-52 -118 -178 -168l-42 62q82 29 131.5 93t49.5 132v56h79v-56q0 -62 32 -120.5t92 -94.5q61 39 94.5 99t33.5 116v56h80z" />
<glyph unicode="&#xaed1;" d="M367 311l-58 49q87 66 128 147.5t50 188.5h-138v67h215q0 -98 -21 -185h163v245h82v-546h-82v234h-186q-47 -113 -153 -200zM80 763h236q0 -137 -48.5 -234.5t-159.5 -174.5l-52 51q87 58 130 126.5t52 164.5h-158v67zM494 -9q100 0 158.5 28.5t58.5 79.5 q0 50 -58.5 78.5t-158.5 28.5q-102 0 -160.5 -28.5t-58.5 -78.5q0 -51 58.5 -79.5t160.5 -28.5zM494 270q138 0 218.5 -45.5t80.5 -125.5q0 -81 -80.5 -126.5t-218.5 -45.5q-139 0 -219.5 45.5t-80.5 126.5q0 80 80.5 125.5t219.5 45.5z" />
<glyph unicode="&#xaed8;" d="M74 716h199q0 -169 -33 -313.5t-121 -263.5l-64 36q77 100 110 216.5t38 257.5h-129v67zM574 471v329h77v-828h-77v432h-125q-36 -194 -131 -323l-64 37q57 75 91 173.5t43.5 178.5t11.5 179h-97v67h168q0 -141 -12 -245h115zM740 823h78v-896h-78v896z" />
<glyph unicode="&#xaed9;" d="M325 301l-65 41q74 73 107 158t39 194h-104v66h179q0 -98 -13 -167h105v210h78v-503h-78v226h-119q-37 -130 -129 -225zM77 760h202q0 -132 -35.5 -228t-123.5 -178l-60 46q71 64 104 131.5t40 162.5h-127v66zM199 184v66h616v-324h-82v258h-534zM736 822h79v-529h-79 v529z" />
<glyph unicode="&#xaedc;" d="M814 822v-665h-78v665h78zM324 272l-65 43q75 77 108 166t39 203h-103v66h178q0 -103 -14 -187h107v240h78v-627h-78v321h-123q-37 -128 -127 -225zM77 750h202q0 -139 -34.5 -238t-125.5 -185l-62 45q73 64 106.5 137.5t40.5 174.5h-127v66zM298 21h540v-67h-622v271h82 v-204z" />
<glyph unicode="&#xaee8;" d="M324 308l-63 42q73 73 106 156t39 192h-104v67h178q0 -96 -13 -177h107v215h77v-489h-77v207h-124q-36 -119 -126 -213zM77 765h201q0 -135 -35 -230t-124 -177l-60 46q72 62 105 130t40 164h-127v67zM304 200v-195h430v195h-430zM224 -61v326h591v-326h-591zM736 823h79 v-518h-79v518z" />
<glyph unicode="&#xaeeb;" d="M815 822v-598h-79v598h79zM326 287l-65 42q73 74 105.5 161t38.5 199h-102v66h177q0 -101 -13 -172h106v220h77v-499h-77v213h-119q-37 -132 -128 -230zM77 755h202q0 -136 -35 -233t-125 -180l-61 45q72 64 105.5 134.5t40.5 167.5h-127v66zM557 274v-33 q0 -87 91 -155.5t214 -88.5l-32 -63q-105 19 -190.5 70.5t-124.5 126.5q-39 -75 -124.5 -126.5t-189.5 -70.5l-32 63q123 20 213.5 88.5t90.5 155.5v33h84z" />
<glyph unicode="&#xaeed;" d="M815 822v-546h-79v546h79zM327 298l-65 43q73 74 105.5 157.5t38.5 193.5h-103v67h178q0 -102 -13 -175h106v219h77v-496h-77v210h-122q-34 -121 -125 -219zM79 759h200q0 -135 -35 -230t-124 -177l-61 46q72 62 105 130t40 164h-125v67zM506 -9q109 0 170.5 26.5 t61.5 73.5q0 48 -61.5 74.5t-170.5 26.5t-170.5 -26.5t-61.5 -74.5q0 -47 61.5 -73.5t170.5 -26.5zM506 256q149 0 232.5 -43t83.5 -122q0 -78 -83.5 -121t-232.5 -43t-232.5 43t-83.5 121q0 79 83.5 122t232.5 43z" />
<glyph unicode="&#xaef4;" d="M76 725h244q0 -368 -211 -594l-64 47q181 189 197 480h-166v67zM510 341h196v172h-158q-11 -83 -38 -172zM706 823h82v-897h-82v348h-220q-46 -115 -121 -205l-67 45q171 201 186 544h-137v67h214q0 -71 -6 -146h151v244z" />
<glyph unicode="&#xaef8;" d="M365 265l-58 51q163 137 177 365h-133v67h210q0 -61 -5 -102h150v175h82v-660h-82v203h-177v67h177v148h-159q-39 -191 -182 -314zM83 748h236q0 -142 -46 -248t-156 -190l-55 52q86 64 128.5 140.5t50.5 178.5h-158v67zM290 13h521v-67h-603v268h82v-201z" />
<glyph unicode="&#xaefc;" d="M370 362l-58 49q83 59 124 130t50 169h-138v66h215q0 -46 -4 -82h147v129h82v-462h-82v97h-168v64h168v108h-157q-36 -158 -179 -268zM83 776h235q0 -125 -49.5 -211t-153.5 -158l-54 52q81 51 124 109t54 142h-156v66zM287 -2h529v-65h-610v229h500v91h-502v65h584v-217 h-501v-103z" />
<glyph unicode="&#xaf07;" d="M369 293l-59 48q161 130 176 346h-135v66h212q0 -51 -6 -101h149v170h82v-615h-82v183h-172v67h172v129h-159q-38 -175 -178 -293zM83 753h235q0 -137 -48 -235.5t-159 -176.5l-53 52q87 58 130 127.5t52 166.5h-157v66zM539 274v-28q0 -92 86.5 -161t211.5 -90l-33 -64 q-103 19 -185 70t-121 125q-39 -75 -121.5 -126.5t-186.5 -70.5l-33 64q126 21 213 90.5t87 162.5v28h82z" />
<glyph unicode="&#xaf08;" d="M368 316l-59 49q84 66 125.5 146t49.5 186h-134v67h211q0 -53 -5 -92h151v151h82v-516h-82v106h-171v67h171v126h-161q-37 -171 -178 -290zM109 355l-53 52q87 57 130 125.5t52 164.5h-158v67h236q0 -137 -48 -234.5t-159 -174.5zM688 278v-56q0 -72 48 -135t132 -91 l-41 -61q-131 48 -180 171q-47 -127 -165 -179q-122 49 -166 176q-53 -120 -178 -168l-42 61q82 30 131.5 94t49.5 132v56h79v-56q0 -63 31.5 -121t92.5 -94q61 38 94.5 98.5t33.5 116.5v56h80z" />
<glyph unicode="&#xaf0d;" d="M358 329l-58 48q86 66 128 144.5t50 183.5h-128v66h205q0 -53 -5 -89h156v140h82v-487h-82v100h-172v66h172v116h-165q-39 -173 -183 -288zM82 771h236q0 -134 -48 -229t-158 -171l-53 52q86 56 128 122t51 160h-156v66zM292 0h516v-62h-598v355h581v-62h-499v-84h486 v-61h-486v-86z" />
<glyph unicode="&#xaf10;" d="M74 716h199q0 -109 -11 -198.5t-46.5 -193t-96.5 -185.5l-64 36q77 99 110 216t38 258h-129v67zM436 348h139v163h-112q-8 -89 -27 -163zM575 578v222h77v-828h-77v309h-157q-34 -107 -100 -200l-64 37q57 75 91 173t43.5 178t11.5 180h-97v67h168q0 -64 -3 -138h107z M740 823h78v-896h-78v896z" />
<glyph unicode="&#xaf2c;" d="M736 271l-82 11q37 178 37 383h-224v66h304v-61q0 -219 -35 -399zM336 268l-82 14q59 197 61 383h-199v66h279v-31q0 -216 -59 -432zM517 124h346v-67h-810v67h383v290h81v-290z" />
<glyph unicode="&#xaf2d;" d="M746 473l-79 9q23 113 25 235h-222v67h302v-39q0 -148 -26 -272zM355 472l-80 11q37 121 41 234h-192v67h272v-32q0 -148 -41 -280zM142 167v67h620v-304h-82v237h-538zM516 396h347v-66h-808v66h380v181h81v-181z" />
<glyph unicode="&#xaf30;" d="M746 452l-80 9q24 121 26 249h-222v67h302v-42q0 -154 -26 -283zM354 450l-80 13q40 131 42 247h-192v67h272v-34q0 -156 -42 -293zM243 224v-211h536v-67h-618v278h82zM516 378h346v-67h-808v67h381v179h81v-179z" />
<glyph unicode="&#xaf32;" d="M746 493l-79 8q23 113 25 219h-222v66h302v-36q0 -141 -26 -257zM355 492l-80 13q37 109 41 215h-192v66h272v-34q0 -141 -41 -260zM228 266v-249q100 4 190 27l11 -67q-110 -28 -237 -28h-43v317h79zM610 -16q39 0 63 16t24 43t-24 43.5t-63 16.5t-63 -16.5t-24 -43.5 t24 -43t63 -16zM610 160q68 0 112.5 -32t44.5 -85q0 -52 -44 -84t-113 -32t-113 32t-44 84q0 53 44.5 85t112.5 32zM650 330v-78h161v-61h-403v61h162v78h80zM516 435h347v-66h-808v66h380v158h81v-158z" />
<glyph unicode="&#xaf34;" d="M747 515l-80 9q23 104 25 204h-222v66h302v-34q0 -134 -25 -245zM355 513l-80 13q37 106 41 202h-193v66h273v-33q0 -136 -41 -248zM239 99v-98h552v-65h-633v225h521v86h-523v65h603v-213h-520zM515 459h348v-66h-809v66h380v154h81v-154z" />
<glyph unicode="&#xaf3c;" d="M745 476l-79 10q24 112 26 233h-222v66h302v-39q0 -147 -27 -270zM355 476l-80 13q37 118 41 230h-193v66h273v-31q0 -148 -41 -278zM235 182v-178h447v178h-447zM154 -62v309h608v-309h-608zM516 412h347v-67h-809v67h381v170h81v-170z" />
<glyph unicode="&#xaf3d;" d="M745 483l-79 9q24 110 26 229h-222v66h302v-38q0 -146 -27 -266zM355 481l-80 12q37 117 41 228h-192v66h272v-31q0 -146 -41 -275zM676 4v116h-434v-116h434zM676 185v104h81v-351h-596v351h81v-104h434zM516 424h347v-66h-809v66h381v161h81v-161z" />
<glyph unicode="&#xaf3f;" d="M745 465l-79 9q24 114 26 238h-222v66h301v-39q0 -149 -26 -274zM355 465l-80 12q37 120 41 235h-192v66h272v-31q0 -150 -41 -282zM500 271v-43q0 -87 87.5 -151t215.5 -83l-31 -64q-106 18 -190 65.5t-123 118.5q-40 -71 -124.5 -118.5t-190.5 -65.5l-31 64 q129 19 216.5 83t87.5 151v43h83zM516 400h346v-67h-807v67h380v171h81v-171z" />
<glyph unicode="&#xaf41;" d="M745 475l-79 9q24 112 26 234h-222v66h302v-39q0 -147 -27 -270zM355 474l-80 13q37 119 41 231h-192v66h272v-32q0 -147 -41 -278zM457 -9q106 0 166.5 27.5t60.5 75.5q0 49 -60.5 76.5t-166.5 27.5t-166 -27.5t-60 -76.5q0 -48 60 -75.5t166 -27.5zM457 262 q145 0 228 -44t83 -124q0 -79 -83 -123t-228 -44t-227.5 44t-82.5 123q0 80 82 124t228 44zM516 405h347v-67h-808v67h380v173h81v-173z" />
<glyph unicode="&#xaf42;" d="M745 478l-79 10q24 111 26 231h-222v66h302v-38q0 -147 -27 -269zM355 478l-80 13q37 117 41 228h-192v66h272v-31q0 -147 -41 -276zM768 187h-261q19 -73 102 -125.5t195 -68.5l-31 -63q-106 17 -190.5 65t-123.5 121q-39 -72 -123 -120t-191 -65l-31 64q112 15 195 67 t103 125h-261v66h617v-66zM516 414h346v-67h-807v67h380v170h81v-170z" />
<glyph unicode="&#xaf43;" d="M746 494l-79 10q23 112 25 219h-222v66h302v-37q0 -141 -26 -258zM355 494l-81 12q38 110 42 217h-192v66h272v-34q0 -142 -41 -261zM757 183h-256q8 -68 93 -121.5t199 -68.5l-30 -63q-101 15 -183.5 59.5t-121.5 108.5q-39 -64 -121.5 -108.5t-184.5 -59.5l-30 63 q114 15 199.5 68.5t93.5 121.5h-257v66h258v90h84v-90h257v-66zM516 439h346v-66h-807v66h380v154h81v-154z" />
<glyph unicode="&#xaf48;" d="M546 333l-75 10q22 145 22 310h-163v67h239v-57q0 -183 -23 -330zM232 324l-76 16q46 147 46 313h-131v67h208v-56q0 -184 -47 -340zM382 453v-258q158 10 231 21l4 -62q-213 -35 -562 -35l-9 68q144 0 260 5v261h76zM883 447v-68h-135v-453h-82v896h82v-375h135z" />
<glyph unicode="&#xaf49;" d="M530 454l-78 8q27 116 27 233h-151v67h229v-50q0 -145 -27 -258zM242 452l-77 10q34 122 36 233h-124v67h201v-36q0 -147 -36 -274zM608 401l4 -60q-209 -34 -556 -34l-9 68q134 0 254 4v173h75v-170q146 7 232 19zM153 158v66h597v-293h-83v227h-514zM873 569v-69h-123 v-234h-83v557h83v-254h123z" />
<glyph unicode="&#xaf50;" d="M533 495l-78 10q24 101 24 201h-151v66h229v-45q0 -131 -24 -232zM243 493l-77 10q31 104 35 203h-124v66h201v-32q0 -134 -35 -247zM612 454l5 -58q-213 -34 -563 -34l-7 66q133 0 254 4v153h75v-150q150 7 236 19zM245 91v-92h536v-63h-618v216h505v83h-507v62h589 v-206h-505zM750 606h123v-68h-123v-202h-83v487h83v-217z" />
<glyph unicode="&#xaf5c;" d="M531 458l-77 10q25 110 25 232h-151v66h229v-50q0 -144 -26 -258zM242 457l-77 12q34 116 36 231h-124v66h201v-35q0 -148 -36 -274zM608 408l5 -58q-200 -34 -558 -34l-8 66q163 0 254 3v171h75v-167q147 8 232 19zM670 250v-34q0 -70 44.5 -130t124.5 -88l-40 -61 q-122 44 -170 162q-45 -121 -166 -170q-119 47 -166 168q-48 -116 -169 -160l-40 61q80 28 125 89t45 129v34h79v-34q0 -60 32.5 -116.5t93.5 -91.5q61 35 94 92.5t33 115.5v34h80zM750 586h123v-69h-123v-231h-83v537h83v-237z" />
<glyph unicode="&#xaf5d;" d="M530 461l-78 10q27 113 27 229h-151v66h229v-49q0 -145 -27 -256zM242 458l-77 12q34 115 36 230h-124v66h201v-35q0 -147 -36 -273zM608 413l5 -61q-198 -35 -557 -37l-9 68q162 0 254 4v171h75v-168q148 9 232 23zM461 -7q101 0 158 25t57 70t-57 70t-158 25t-158 -25 t-57 -70t57 -70t158 -25zM461 246q139 0 218 -41.5t79 -116.5t-79 -116.5t-218 -41.5t-217.5 41.5t-78.5 116.5t78.5 116.5t217.5 41.5zM750 579h123v-68h-123v-251h-83v562h83v-243z" />
<glyph unicode="&#xaf64;" d="M476 356l-71 11q19 121 19 285h-134v67h206v-67q0 -171 -20 -296zM208 355l-72 12q35 139 37 285h-108v67h180v-42q0 -171 -37 -322zM333 445v-231q114 5 192 17l5 -59q-170 -32 -475 -32l-11 67q138 0 219 3v235h70zM736 824h79v-897h-79v456h-96v-412h-77v833h77v-354 h96v374z" />
<glyph unicode="&#xaf65;" d="M476 466l-69 6q19 110 19 226h-138v66h208v-49q0 -141 -20 -249zM212 464l-69 16q31 110 35 218h-110v66h178v-31q0 -149 -34 -269zM523 403l6 -59q-187 -30 -472 -30l-11 67q113 0 220 4v177h70v-174q130 8 187 15zM203 163v67h611v-304h-82v237h-529zM736 823h78v-553 h-78v240h-93v-235h-77v530h77v-228h93v246z" />
<glyph unicode="&#xaf79;" d="M643 509v-218h-77v514h77v-229h93v247h78v-562h-78v248h-93zM476 467l-69 6q19 110 19 226h-138v66h208v-49q0 -142 -20 -249zM212 466l-69 16q31 110 35 217h-110v66h178v-31q0 -148 -34 -268zM524 409l5 -60q-186 -34 -472 -34l-11 68q112 0 220 4v176h70v-172 q119 7 188 18zM510 -10q106 0 166 26t60 73q0 48 -59.5 74t-166.5 26t-166.5 -26t-59.5 -74q0 -47 60 -73t166 -26zM510 252q146 0 228 -42.5t82 -120.5q0 -77 -82 -119.5t-228 -42.5t-228 42.5t-82 119.5q0 78 82 120.5t228 42.5z" />
<glyph unicode="&#xaf80;" d="M568 330l-75 11q23 144 23 312h-168v67h243v-58q0 -184 -23 -332zM247 323l-77 14q43 158 43 316h-133v67h209v-48q0 -186 -42 -349zM401 456v-262q155 9 246 22l5 -61q-217 -36 -587 -36l-10 68q174 0 270 4v265h76zM704 822h82v-896h-82v896z" />
<glyph unicode="&#xaf84;" d="M789 822v-665h-82v665h82zM572 438l-76 9q26 115 26 232h-171v67h247v-50q0 -145 -26 -258zM260 436l-75 11q36 120 38 232h-131v67h206v-36q0 -148 -38 -274zM644 381l5 -61q-228 -34 -585 -36l-8 68q150 0 269 5v177h76v-174q128 6 243 21zM281 13h535v-67h-617v258h82 v-191z" />
<glyph unicode="&#xaf88;" d="M789 823v-490h-82v490h82zM572 495l-75 10q24 101 24 203h-170v66h245v-45q0 -132 -24 -234zM262 493l-76 11q31 98 35 204h-131v66h206v-33q0 -135 -34 -248zM643 454l6 -58q-231 -36 -586 -36l-11 66q143 0 271 4v159h76v-156q166 10 244 21zM270 0h550v-64h-631v212 h518v83h-521v62h603v-205h-519v-88z" />
<glyph unicode="&#xaf90;" d="M571 465l-75 9q26 109 26 219h-171v66h247v-47q0 -139 -27 -247zM262 464l-75 11q34 113 36 218h-131v66h206v-34q0 -141 -36 -261zM646 414l4 -60q-233 -36 -586 -36l-8 67q111 0 269 5v171h76v-167q124 4 245 20zM280 173v-169h428v169h-428zM199 -62v301h590v-301 h-590zM707 822h82v-536h-82v536z" />
<glyph unicode="&#xaf91;" d="M571 471l-75 9q26 109 26 219h-171v66h247v-47q0 -139 -27 -247zM262 470l-75 11q34 113 36 218h-131v66h206v-34q0 -141 -36 -261zM646 427l4 -60q-226 -35 -587 -37l-7 68q150 0 269 5v167h76v-164q130 6 245 21zM707 4v110h-430v-110h430zM707 177v100h82v-339h-594 v339h82v-100h430zM707 822h82v-514h-82v514z" />
<glyph unicode="&#xaf95;" d="M789 822v-555h-82v555h82zM571 462l-75 10q26 110 26 219h-171v66h247v-48q0 -138 -27 -247zM262 462l-75 10q34 115 36 219h-131v66h206v-34q0 -141 -36 -261zM646 412l4 -61q-218 -35 -587 -37l-7 68q150 0 269 5v171h76v-168q133 6 245 22zM493 -9q102 0 160 26.5 t58 73.5t-58 73.5t-160 26.5t-160.5 -26.5t-58.5 -73.5t58.5 -73.5t160.5 -26.5zM493 254q140 0 220 -43t80 -120q0 -78 -79.5 -121t-220.5 -43t-221 43t-80 121t80 120.5t221 42.5z" />
<glyph unicode="&#xaf9c;" d="M739 269l-81 11q36 179 36 384h-250v67h331v-61q0 -215 -36 -401zM298 272l-79 22q63 184 65 370h-180v67h260v-42q0 -60 -2 -101.5t-18 -130.5t-46 -185zM616 124h247v-68h-810v68h291v277h80v-277h113v277h79v-277z" />
<glyph unicode="&#xafb8;" d="M863 387v-67h-364v-394h-82v394h-365v67h231q43 160 45 307h-210v67h290v-30q0 -175 -40 -344h289q32 151 34 307h-217v67h298v-40q0 -175 -33 -334h124z" />
<glyph unicode="&#xafb9;" d="M867 394h-368v-160h261v-306h-82v240h-533v66h272v160h-364v67h248q34 132 38 255h-207v66h287v-26q0 -153 -37 -295h275q30 127 32 255h-203v66h283v-35q0 -152 -31 -286h129v-67z" />
<glyph unicode="&#xafbc;" d="M243 228v-215h533v-67h-615v282h82zM737 428h129v-67h-358v-217h-81v217h-375v67h247q36 141 40 273h-208v67h288v-27q0 -161 -38 -313h274q32 140 34 273h-203v67h283v-36q0 -160 -32 -304z" />
<glyph unicode="&#xafc0;" d="M867 437h-368v-110h263v-224h-528v-102h556v-65h-638v229h529v97h-531v65h267v110h-364v67h252q29 106 34 221h-207v66h287v-31q0 -137 -31 -256h271q28 112 30 221h-203v66h283v-33q0 -136 -28 -254h126v-67z" />
<glyph unicode="&#xafc7;" d="M214 94v-93q160 0 244 15l9 -61q-88 -17 -281 -17h-50v215h206v84h-208v61h286v-204h-206zM638 -16q37 0 59 16.5t22 44.5t-22 44.5t-59 16.5q-36 0 -58 -16.5t-22 -44.5t22 -44.5t58 -16.5zM638 163q66 0 108.5 -32t42.5 -86q0 -53 -42.5 -85.5t-108.5 -32.5 t-108.5 32.5t-42.5 85.5q0 54 42.5 86t108.5 32zM678 337v-82h149v-61h-376v61h147v82h80zM741 500h124v-66h-369v-131h-82v131h-363v66h253q30 108 35 224h-208v66h288v-31q0 -139 -32 -259h273q27 110 29 224h-203v66h283v-33q0 -137 -28 -257z" />
<glyph unicode="&#xafc8;" d="M682 5v183h-447v-183h447zM867 405h-368v-151h263v-315h-608v315h263v151h-365v66h251q33 121 37 243h-209v66h288v-26q0 -148 -33 -283h274q27 122 29 243h-203v66h283v-35q0 -146 -28 -274h126v-66z" />
<glyph unicode="&#xafc9;" d="M678 4v118h-440v-118h440zM678 186v114h82v-362h-604v362h82v-114h440zM742 482h125v-68h-369v-163h-82v163h-364v68h251q33 123 37 237h-209v66h288v-25q0 -144 -33 -278h274q27 123 29 237h-203v66h283v-33q0 -144 -27 -270z" />
<glyph unicode="&#xafcb;" d="M500 220v-32q0 -74 87.5 -127.5t214.5 -67.5l-30 -64q-107 14 -191.5 56t-123.5 105q-40 -64 -124.5 -106t-191.5 -55l-29 64q126 14 214.5 68.5t88.5 126.5v32h85zM739 461h127v-66h-368v-138h-81v138h-364v66h249q34 130 38 251h-208v66h287v-26q0 -151 -35 -291h274 q29 125 31 251h-203v66h283v-35q0 -150 -30 -282z" />
<glyph unicode="&#xafcd;" d="M684 100q0 49 -60 76.5t-166 27.5t-166.5 -27.5t-60.5 -76.5t60 -76.5t167 -27.5q106 0 166 27.5t60 76.5zM867 396h-368v-128q126 -7 196.5 -50.5t70.5 -117.5q0 -80 -82 -124.5t-226 -44.5q-145 0 -227.5 44.5t-82.5 124.5q0 74 71 117.5t198 50.5v128h-364v66h250 q33 130 37 248h-208v66h287v-26q0 -150 -34 -288h273q29 123 31 248h-203v66h283v-35q0 -149 -29 -279h127v-66z" />
<glyph unicode="&#xafce;" d="M866 402h-366v-141h268v-66h-261q17 -76 100 -129.5t197 -70.5l-33 -63q-105 17 -189 65t-122 121q-38 -72 -122.5 -120t-190.5 -65l-32 64q114 16 197.5 69.5t100.5 128.5h-262v66h268v141h-366v66h251q32 129 36 246h-208v66h287v-26q0 -149 -33 -286h273 q28 122 30 246h-202v66h282v-35q0 -147 -28 -277h125v-66z" />
<glyph unicode="&#xafd4;" d="M647 427l5 -62q-98 -14 -266 -25v-377h-82v374q-148 -5 -252 -5l-12 69q53 0 169 2q35 136 35 277h-147v67h225v-49q0 -160 -30 -294q124 4 185 8q30 126 30 268h-140v67h218v-55q0 -153 -26 -274q30 3 88 9zM709 822h82v-896h-82v262h-206v65h206v569z" />
<glyph unicode="&#xafdc;" d="M512 432h193v391h82v-502h-82v52h-193v59zM284 322v148q-133 -5 -225 -5l-11 66q50 0 166 2q24 91 28 183h-137v66h216v-32q0 -117 -25 -215q57 1 173 7q23 92 25 174h-133v66h211v-34q0 -111 -21 -200q25 3 80 7l6 -58q-112 -15 -271 -24v-151h-82zM270 -2h550v-62h-632 v209h518v81h-520v61h601v-201h-517v-88z" />
<glyph unicode="&#xafe8;" d="M513 395h193v428h82v-555h-82v66h-193v61zM284 275v162q-101 -5 -225 -5l-11 66q48 0 164 2q28 105 30 204h-137v66h216v-33q0 -129 -27 -236q95 3 173 10q24 96 26 193h-132v66h211v-36q0 -119 -23 -216q14 2 41 5t41 5l6 -58q-106 -19 -271 -30v-165h-82zM692 242v-24 q0 -72 48.5 -133.5t132.5 -87.5l-40 -61q-131 46 -181 166q-46 -124 -168 -173q-118 47 -164 172q-50 -118 -180 -165l-41 61q84 27 133 89t49 132v24h79v-24q0 -61 32 -119t92 -92q61 35 94 93.5t33 117.5v24h81z" />
<glyph unicode="&#xafe9;" d="M512 391h193v431h82v-569h-82v76h-193v62zM284 262v174q-135 -5 -225 -5l-11 66q49 0 163 2q29 106 31 208h-137v66h216v-33q0 -131 -28 -240q85 3 173 9q26 103 28 198h-133v66h211v-36q0 -122 -24 -220q77 8 82 9l6 -58q-106 -18 -270 -29v-177h-82zM489 -10 q104 0 162 25t58 71q0 45 -58 70.5t-162 25.5q-103 0 -160.5 -25.5t-57.5 -70.5q0 -46 57.5 -71t160.5 -25zM489 244q144 0 223.5 -41t79.5 -117t-80 -117.5t-223 -41.5q-142 0 -221.5 41.5t-79.5 117.5t79.5 117t221.5 41z" />
<glyph unicode="&#xaff0;" d="M525 431l7 -58q-74 -14 -212 -25v-350h-78v345q-90 -5 -198 -5l-10 67q76 0 118 1q32 121 34 255h-112v67h185v-44q0 -150 -30 -275q100 4 143 7q29 122 29 245h-109v67h182v-50q0 -143 -25 -256q52 6 76 9zM567 263v539h77v-827h-77v223h-164v65h164zM734 823h79v-897 h-79v897z" />
<glyph unicode="&#xaff1;" d="M411 387h157v420h77v-549h-77v69h-157v60zM252 261v169q-74 -4 -200 -4l-9 65q78 0 123 1q25 98 27 199h-110v66h180v-35q0 -125 -24 -228q68 1 149 8q22 88 22 189h-112v66h182v-50q0 -116 -18 -199q27 2 64 8l6 -57q-79 -16 -202 -25v-173h-78zM176 151v66h632v-289 h-82v223h-550zM730 822h78v-566h-78v566z" />
<glyph unicode="&#xaff4;" d="M808 822v-679h-78v679h78zM411 345h157v462h77v-645h-77v122h-157v61zM253 241v162q-99 -4 -201 -4l-9 66q77 0 121 1q27 115 29 215h-110v66h180v-30q0 -133 -26 -249q50 1 149 7q24 104 24 206h-111v66h181v-46q0 -124 -20 -219q10 1 32.5 3.5t33.5 4.5l6 -57 q-79 -16 -201 -25v-167h-78zM275 13h561v-67h-643v258h82v-191z" />
<glyph unicode="&#xaff8;" d="M808 822v-506h-78v506h78zM411 434h157v373h77v-484h-77v51h-157v60zM252 316v151q-93 -5 -200 -5l-9 66q79 0 124 1q24 91 26 175h-110v66h180v-32q0 -114 -23 -207q52 1 149 7q21 84 21 166h-112v66h182v-46q0 -104 -18 -180q10 1 32 3t32 4l6 -56q-71 -13 -202 -23 v-156h-78zM275 -2h561v-62h-642v208h534v78h-536v61h616v-199h-533v-86z" />
<glyph unicode="&#xb000;" d="M411 391h157v416h77v-531h-77v54h-157v61zM252 270v165q-99 -4 -200 -4l-9 66q78 0 122 1q26 103 28 200h-110v66h180v-34q0 -127 -24 -231q84 2 149 7q22 96 22 192h-112v66h183v-46q0 -117 -18 -205q41 4 63 7l6 -56q-77 -16 -202 -25v-169h-78zM270 167v-163h458v163 h-458zM189 -62v294h619v-294h-619zM730 823h78v-555h-78v555z" />
<glyph unicode="&#xb001;" d="M411 411h157v395h77v-514h-77v58h-157v61zM253 289v154q-100 -4 -201 -4l-9 66q78 0 123 1q25 101 27 195h-110v67h180v-35q0 -124 -23 -225q83 2 148 7q22 88 22 186h-112v67h183v-51q0 -114 -18 -195q45 4 63 7l6 -57q-79 -15 -202 -24v-159h-77zM727 4v98h-456v-98 h456zM727 165v89h81v-316h-618v316h81v-89h456zM730 822h78v-533h-78v533z" />
<glyph unicode="&#xb004;" d="M808 823v-555h-78v555h78zM411 391h157v416h77v-532h-77v55h-157v61zM252 269v166q-99 -4 -200 -4l-9 66q78 0 122 1q26 103 28 200h-110v66h180v-34q0 -127 -24 -231q84 2 149 7q22 96 22 192h-112v66h183v-46q0 -117 -18 -205q41 4 63 7l6 -56q-77 -16 -202 -25v-170 h-78zM694 237v-26q0 -70 48.5 -130t132.5 -85l-39 -62q-134 45 -182 164q-46 -125 -166 -171q-120 45 -166 170q-24 -56 -70.5 -98.5t-110.5 -64.5l-40 62q84 26 133.5 86t49.5 129v26h79v-26q0 -59 32 -115.5t92 -91.5q60 35 92.5 92t32.5 115v26h82z" />
<glyph unicode="&#xb00c;" d="M652 422l6 -61q-104 -16 -262 -25v-364h-81v361q-136 -6 -259 -6l-11 69q53 0 171 2q36 140 36 284h-148v67h227v-49q0 -164 -32 -301q124 4 184 8q32 130 32 275h-140v67h220v-55q0 -156 -28 -281q29 3 85 9zM712 823h82v-897h-82v897z" />
<glyph unicode="&#xb010;" d="M791 822v-672h-82v672h82zM318 191v182q-114 -5 -255 -5l-12 67q109 0 168 1q32 122 34 249h-140v66h218v-38q0 -149 -30 -274q93 3 177 9q30 122 30 237h-139v66h218v-44q0 -139 -26 -251q58 6 86 10l6 -59q-97 -18 -254 -29v-187h-81zM253 13h565v-67h-646v278h81v-211 z" />
<glyph unicode="&#xb014;" d="M791 822v-465h-82v465h82zM273 1h554v-63h-635v227h517v90h-520v63h123v118q-117 -4 -248 -4l-12 66q111 0 171 1q27 107 29 206h-140v67h220v-35q0 -130 -26 -237q58 1 174 7q25 97 27 198h-136v67h215v-38q0 -123 -22 -221q53 4 81 7l5 -57q-104 -15 -256 -24v-121h397 v-214h-518v-103z" />
<glyph unicode="&#xb01c;" d="M710 7v176h-438v-176h438zM394 406v-158h397v-307h-600v307h121v154q-107 -6 -248 -6l-12 68q110 0 170 1q29 112 31 228h-140v66h219v-37q0 -138 -27 -255q98 3 176 10q25 103 27 216h-139v66h218v-43q0 -130 -23 -232q55 6 84 10l5 -59q-100 -18 -259 -29zM709 823h82 v-535h-82v535z" />
<glyph unicode="&#xb01d;" d="M318 261v153q-121 -4 -254 -4l-12 68q111 0 170 1q29 112 31 221h-140v67h219v-37q0 -136 -27 -249q96 2 175 7q26 100 28 212h-139v67h218v-42q0 -130 -23 -231q16 1 44 3.5t40 3.5l5 -60q-106 -14 -253 -23v-157h-82zM710 4v106h-446v-106h446zM710 174v106h81v-342 h-608v342h81v-106h446zM709 823h82v-505h-82v505z" />
<glyph unicode="&#xb028;" d="M863 390v-68h-207v-396h-83v396h-231v-396h-82v396h-208v68h231q43 157 45 304h-210v67h290v-30q0 -174 -40 -341h289q32 150 34 304h-218v67h299v-40q0 -173 -33 -331h124z" />
<glyph unicode="&#xb044;" d="M691 656h-216v67h296v-68q0 -234 -40 -430l-81 10q41 190 41 421zM350 224l-82 13q60 213 62 419h-214v67h295v-35q0 -225 -61 -464zM52 128h811v-68h-811v68z" />
<glyph unicode="&#xb045;" d="M140 191v66h625v-329h-82v263h-543zM735 445h132v-67h-814v67h247q34 131 39 265h-210v66h290v-27q0 -157 -37 -304h271q31 130 33 265h-206v66h286v-36q0 -157 -31 -295z" />
<glyph unicode="&#xb048;" d="M240 245v-226h545v-67h-627v293h82zM733 407h134v-67h-815v67h243q40 151 44 291h-211v66h291v-22q0 -168 -40 -335h272q34 150 36 290h-207v67h286v-29q0 -173 -33 -328z" />
<glyph unicode="&#xb04a;" d="M228 280v-263q100 4 190 27l10 -66q-109 -29 -236 -29h-43v331h79zM611 -16q39 0 63 17.5t24 46.5q0 30 -24 47t-63 17t-62.5 -17t-23.5 -47q0 -29 23.5 -46.5t62.5 -17.5zM611 170q70 0 113.5 -33t43.5 -89t-43.5 -89t-113.5 -33q-69 0 -113 33.5t-44 88.5t44 88.5 t113 33.5zM651 348v-78h160v-61h-404v61h164v78h80zM737 462h129v-67h-813v67h250q34 133 36 253h-210v66h290v-33q0 -152 -33 -286h270q29 125 31 253h-207v66h286v-37q0 -152 -29 -282z" />
<glyph unicode="&#xb04c;" d="M234 112v-108h556v-65h-638v234h529v96h-531v65h612v-222h-528zM736 494h131v-67h-814v67h249q31 115 35 228h-211v67h291v-32q0 -141 -32 -263h268q29 117 31 228h-207v67h287v-33q0 -140 -28 -262z" />
<glyph unicode="&#xb04e;" d="M217 102v-102q150 0 231 15l7 -61q-85 -16 -267 -16h-47v224h208v85h-211v62h288v-207h-209zM554 247v-247h148v247h-148zM484 -62v371h289v-371h-289zM735 467h132v-66h-814v66h247q36 135 38 251h-211v67h291v-33q0 -151 -36 -285h270q32 128 34 251h-209v67h288v-34 q0 -150 -30 -284z" />
<glyph unicode="&#xb053;" d="M214 105v-103q160 0 244 15l9 -62q-88 -17 -281 -17h-50v226h206v93h-208v62h286v-214h-206zM638 -15q38 0 60 18t22 49t-22 48.5t-60 17.5q-36 0 -58.5 -18t-22.5 -48q0 -31 22.5 -49t58.5 -18zM638 176q67 0 109.5 -34t42.5 -90q0 -57 -42.5 -91t-109.5 -34 q-66 0 -108.5 34t-42.5 91q0 56 42.5 90t108.5 34zM678 360v-86h149v-61h-376v61h147v86h80zM738 476h128v-67h-814v67h252q36 127 38 246h-213v66h292v-32q0 -149 -34 -280h269q30 121 32 246h-207v66h286v-33q0 -149 -29 -279z" />
<glyph unicode="&#xb054;" d="M233 197v-190h451v190h-451zM153 -59v321h612v-321h-612zM736 456h131v-67h-815v67h248q34 129 39 260h-211v67h291v-27q0 -155 -36 -300h271q30 128 32 260h-207v67h287v-36q0 -155 -30 -291z" />
<glyph unicode="&#xb055;" d="M679 5v128h-440v-128h440zM679 198v122h82v-382h-603v382h81v-122h440zM737 471h130v-66h-815v66h250q33 126 37 250h-211v67h291v-28q0 -150 -35 -289h271q29 124 31 250h-206v67h286v-37q0 -149 -29 -280z" />
<glyph unicode="&#xb057;" d="M500 271v-43q0 -87 87.5 -151.5t215.5 -83.5l-31 -64q-107 18 -190.5 65.5t-122.5 118.5q-40 -71 -123.5 -118.5t-190.5 -65.5l-31 64q128 19 215.5 83.5t87.5 151.5v43h83zM735 432h132v-66h-814v66h244q39 152 41 280h-209v66h290v-21q0 -163 -39 -325h273 q32 147 34 280h-206v66h285v-29q0 -167 -31 -317z" />
<glyph unicode="&#xb059;" d="M457 -7q105 0 166 29t61 80t-61 80t-166 29t-166 -29t-61 -80t61 -80t166 -29zM457 277q144 0 227.5 -46.5t83.5 -128.5t-83.5 -129t-227.5 -47q-143 0 -226.5 47t-83.5 129t83.5 128.5t226.5 46.5zM735 443h132v-67h-814v67h246q36 138 40 268h-210v67h290v-28 q0 -159 -38 -307h272q31 132 33 268h-206v67h286v-37q0 -159 -31 -298z" />
<glyph unicode="&#xb05d;" d="M236 99v-98h538v-63h-620v378h613v-62h-531v-94h509v-61h-509zM736 477h131v-66h-815v66h249q34 126 38 245h-211v66h291v-25q0 -148 -35 -286h270q30 120 32 245h-206v66h286v-38q0 -147 -30 -273z" />
<glyph unicode="&#xb07c;" d="M85 726h245q0 -369 -212 -596l-65 48q182 189 198 480h-166v68zM359 726h220q0 -422 -195 -657l-68 45q171 202 186 544h-143v68zM706 823h83v-897h-83v897z" />
<glyph unicode="&#xb07d;" d="M388 307l-58 48q84 68 124 149t48 188h-144v67h222q0 -144 -43.5 -254t-148.5 -198zM87 759h237q0 -137 -48 -234t-158 -175l-55 52q87 58 130 126t52 164h-158v67zM187 182v67h601v-322h-82v255h-519zM706 822h82v-533h-82v533z" />
<glyph unicode="&#xb080;" d="M788 821v-650h-82v650h82zM385 264l-59 51q88 73 129.5 162t48.5 202h-145v67h223q0 -153 -43.5 -270t-153.5 -212zM86 746h238q0 -142 -46 -248t-156 -190l-55 51q87 64 129 140.5t50 179.5h-160v67zM284 13h530v-67h-612v273h82v-206z" />
<glyph unicode="&#xb084;" d="M788 823v-458h-82v458h82zM382 359l-58 48q85 60 126 131t50 168h-143v67h222q0 -137 -45.5 -236t-151.5 -178zM84 773h239q0 -127 -51 -214.5t-156 -160.5l-54 53q82 52 126 110.5t55 144.5h-159v67zM287 3h537v-65h-617v227h501v93h-504v65h584v-219h-501v-101z" />
<glyph unicode="&#xb08c;" d="M385 313l-59 47q85 68 127 149.5t50 187.5h-146v67h223q0 -144 -44.5 -253.5t-150.5 -197.5zM86 764h237q0 -137 -48 -235t-159 -175l-53 52q86 58 129 126.5t52 164.5h-158v67zM283 196v-192h424v192h-424zM203 -62v323h585v-323h-585zM706 823h82v-519h-82v519z" />
<glyph unicode="&#xb08d;" d="M387 322l-60 49q86 66 127 146t49 186h-142v66h221q0 -143 -44.5 -252t-150.5 -195zM89 769h237q0 -136 -48.5 -232.5t-159.5 -172.5l-52 53q87 57 130 124t52 162h-159v66zM707 4v114h-419v-114h419zM707 183v111h81v-357h-581v357h81v-111h419zM706 822h82v-483h-82 v483z" />
<glyph unicode="&#xb08f;" d="M787 822v-608h-82v608h82zM386 295l-58 48q159 128 174 343h-143v66h221q0 -144 -44 -256t-150 -201zM88 752h236q0 -136 -48.5 -234.5t-158.5 -176.5l-53 51q87 60 130 129t52 165h-158v66zM547 268v-31q0 -90 87 -157.5t214 -87.5l-32 -65q-106 19 -189.5 69.5 t-121.5 125.5q-39 -75 -122.5 -125.5t-189.5 -69.5l-32 65q126 20 213.5 87.5t87.5 157.5v31h85z" />
<glyph unicode="&#xb091;" d="M788 823v-535h-82v535h82zM387 312l-60 48q86 68 127.5 149.5t49.5 187.5h-144v67h221q0 -144 -44.5 -254t-149.5 -198zM88 764h237q0 -137 -48.5 -234.5t-159.5 -175.5l-52 52q87 58 130 126.5t52 164.5h-159v67zM490 -10q104 0 163.5 27.5t59.5 77.5q0 49 -60 77 t-163 28q-105 0 -165 -28t-60 -77q0 -50 60 -77.5t165 -27.5zM490 265q142 0 223.5 -45t81.5 -125t-81.5 -125t-223.5 -45q-143 0 -225 45t-82 125t82 125t225 45z" />
<glyph unicode="&#xb098;" d="M170 736v-514q207 0 407 40l10 -68q-202 -41 -427 -41h-71v583h81zM887 465v-68h-144v-471h-82v897h82v-358h144z" />
<glyph unicode="&#xb099;" d="M576 479l10 -67q-201 -40 -419 -40h-70v399h81v-330q212 2 398 38zM170 191v66h579v-332h-82v266h-497zM882 601v-68h-133v-225h-82v515h82v-222h133z" />
<glyph unicode="&#xb09a;" d="M573 493l11 -68q-203 -40 -417 -40h-70v387h81v-318q212 2 395 39zM150 206v66h279v-346h-82v280h-197zM472 206v66h277v-346h-81v280h-196zM882 607v-68h-133v-218h-82v502h82v-216h133z" />
<glyph unicode="&#xb09c;" d="M577 444l9 -68q-200 -40 -419 -40h-70v421h81v-352q215 2 399 39zM276 237v-224h505v-67h-587v291h82zM749 556h133v-69h-133v-313h-82v648h82v-266z" />
<glyph unicode="&#xb09f;" d="M574 491l11 -68q-203 -39 -418 -39h-70v391h81v-322q212 2 396 38zM266 203v-198h497v-66h-579v331h569v-67h-487zM749 614h133v-68h-133v-223h-82v500h82v-209z" />
<glyph unicode="&#xb0a0;" d="M574 522l11 -69q-196 -39 -418 -39h-70v370h81v-302q208 2 396 40zM263 107v-103h519v-66h-600v232h486v92h-489v66h570v-221h-486zM749 637h133v-68h-133v-198h-82v452h82v-186z" />
<glyph unicode="&#xb0a1;" d="M574 513l11 -67q-201 -40 -418 -40h-70v377h81v-308q212 2 396 38zM224 97v-95q175 0 269 19l9 -62q-62 -13 -123.5 -17t-180.5 -4h-53v219h211v86h-213v62h292v-208h-211zM473 240v65h276v-375h-81v310h-195zM882 624v-68h-133v-201h-82v467h82v-198h133z" />
<glyph unicode="&#xb0a2;" d="M574 515l11 -68q-201 -40 -418 -40h-70v376h81v-306q212 2 396 38zM212 101v-99q134 0 221 16l8 -63q-94 -17 -261 -17h-47v222h202v87h-204v63h283v-209h-202zM540 248v-248h137v248h-137zM469 -62v372h280v-372h-280zM882 625v-67h-133v-203h-82v467h82v-197h133z" />
<glyph unicode="&#xb0a8;" d="M576 491l10 -67q-201 -40 -419 -40h-70v394h81v-325q212 2 398 38zM264 201v-196h405v196h-405zM184 -61v328h565v-328h-565zM882 617v-68h-133v-233h-82v507h82v-206h133z" />
<glyph unicode="&#xb0a9;" d="M576 505l10 -67q-201 -40 -419 -40h-70v383h81v-314q212 2 398 38zM668 4v119h-404v-119h404zM668 189v119h81v-370h-566v370h81v-119h404zM883 622v-68h-133v-198h-83v466h83v-200h133z" />
<glyph unicode="&#xb0ab;" d="M576 467l11 -67q-203 -40 -420 -40h-70v401h81v-332q212 2 398 38zM519 288v-39q0 -92 86 -161.5t211 -91.5l-32 -63q-103 19 -184.5 70t-120.5 126q-39 -76 -121.5 -127.5t-186.5 -70.5l-33 63q126 22 213 91.5t87 163.5v39h81zM749 578h133v-68h-133v-277h-82v590h82 v-245z" />
<glyph unicode="&#xb0ac;" d="M576 485l11 -67q-203 -40 -420 -40h-70v389h81v-320q212 2 398 38zM679 284v-64q0 -73 48.5 -135.5t131.5 -90.5l-41 -61q-130 48 -179 171q-48 -129 -165 -178q-119 46 -166 174q-52 -118 -177 -167l-41 61q82 30 131 94t49 132v64h79v-64q0 -63 31.5 -121.5t92.5 -94.5 q60 39 93 99.5t33 116.5v64h80zM749 611h133v-69h-133v-221h-82v501h82v-211z" />
<glyph unicode="&#xb0ad;" d="M576 476l10 -67q-201 -40 -419 -40h-70v398h81v-329q212 2 398 38zM463 -8q98 0 156 29.5t58 80.5t-58 80.5t-156 29.5q-99 0 -157 -29.5t-58 -80.5t58 -80.5t157 -29.5zM463 277q135 0 215.5 -47t80.5 -128t-80.5 -128.5t-215.5 -47.5t-215.5 47.5t-80.5 128.5t80.5 128 t215.5 47zM749 599h133v-68h-133v-242h-82v534h82v-224z" />
<glyph unicode="&#xb0ae;" d="M576 493l11 -68q-201 -40 -420 -40h-70v389h81v-320q215 2 398 39zM764 204h-249q3 -72 86 -132t198 -79l-32 -63q-99 17 -178.5 64.5t-116.5 114.5q-37 -66 -117 -113.5t-179 -64.5l-32 63q117 19 199.5 77.5t85.5 132.5h-251v66h586v-66zM749 604h133v-68h-133v-221 h-82v509h82v-220z" />
<glyph unicode="&#xb0af;" d="M574 515l11 -67q-201 -40 -418 -40h-70v370h81v-301q212 2 396 38zM768 191h-257q7 -70 90.5 -126.5t197.5 -72.5l-30 -62q-101 16 -181.5 61t-118.5 110q-38 -65 -118 -110t-181 -61l-30 62q114 16 197 72.5t90 126.5h-257v65h258v100h82v-100h258v-65zM750 617h132v-68 h-132v-218h-83v492h83v-206z" />
<glyph unicode="&#xb0b1;" d="M574 508l11 -70q-203 -39 -418 -39h-70v378h81v-308q213 2 396 39zM267 93v-92h507v-62h-590v364h570v-61h-487v-88h476v-61h-476zM749 621h133v-68h-133v-206h-82v477h82v-203z" />
<glyph unicode="&#xb0b3;" d="M574 536l11 -68q-196 -39 -418 -39h-70v354h81v-286q207 2 396 39zM474 -12q77 0 121 19t44 53q0 35 -44 54t-121 19t-121.5 -19t-44.5 -54q0 -34 44.5 -53t121.5 -19zM474 194q117 0 183.5 -35t66.5 -99q0 -63 -66.5 -98t-183.5 -35t-184 35t-67 98q0 64 67 99t184 35z M515 387v-90h271v-63h-624v63h271v90h82zM749 639h133v-68h-133v-212h-82v464h82v-184z" />
<glyph unicode="&#xb0b4;" d="M179 714v-484q154 2 288 28l8 -71q-147 -28 -321 -28h-57v555h82zM735 823h79v-896h-79v463h-127v-418h-77v831h77v-345h127v365z" />
<glyph unicode="&#xb0b5;" d="M467 474l8 -67q-140 -29 -321 -29h-57v383h82v-315q159 2 288 28zM208 187v66h602v-327h-82v261h-520zM731 823h79v-526h-79v233h-122v-227h-78v503h78v-209h122v226z" />
<glyph unicode="&#xb0b8;" d="M609 494v-309h-78v621h78v-245h122v261h79v-666h-79v338h-122zM467 435l8 -67q-142 -28 -321 -28h-57v406h82v-338q155 2 288 27zM305 21h531v-67h-613v294h82v-227z" />
<glyph unicode="&#xb0bc;" d="M608 559v-193h-77v440h77v-181h123v197h79v-460h-79v197h-123zM466 506l8 -67q-139 -27 -320 -27h-56v359h81v-291q158 2 287 26zM301 4h543v-66h-624v227h508v91h-510v65h592v-217h-509v-100z" />
<glyph unicode="&#xb0c4;" d="M467 471l8 -68q-139 -26 -321 -26h-57v388h82v-321q161 2 288 27zM299 203v-199h430v199h-430zM219 -62v331h591v-331h-591zM731 823h79v-511h-79v217h-123v-211h-78v488h78v-210h123v227z" />
<glyph unicode="&#xb0c5;" d="M468 486l8 -67q-139 -27 -321 -27h-57v371h81v-303q160 2 289 26zM729 5v115h-426v-115h426zM729 185v109h81v-356h-589v356h82v-109h426zM731 822h79v-488h-79v204h-123v-196h-77v464h77v-201h123v217z" />
<glyph unicode="&#xb0c7;" d="M608 518v-207h-77v495h77v-221h123v237h79v-587h-79v283h-123zM463 447l11 -65q-139 -36 -321 -36h-56v396h82v-331q163 2 284 36zM553 270v-33q0 -87 90.5 -155t214.5 -88l-33 -65q-103 19 -188 69.5t-125 124.5q-39 -73 -124 -124t-188 -70l-32 65q123 20 213 88 t90 155v33h82z" />
<glyph unicode="&#xb0c8;" d="M607 532v-215h-77v488h77v-206h124v223h79v-515h-79v225h-124zM466 463l8 -68q-142 -28 -319 -28h-57v385h81v-316q154 2 287 27zM700 279v-59q0 -72 48.5 -134.5t131.5 -90.5l-40 -61q-133 48 -181 170q-47 -127 -164 -178q-122 48 -167 174q-53 -118 -178 -166l-40 61 q82 30 131 94t49 131v59h79v-59q0 -64 31.5 -121.5t92.5 -92.5q60 38 93 98.5t33 115.5v59h81z" />
<glyph unicode="&#xb0c9;" d="M607 522v-211h-77v495h77v-217h124v233h79v-543h-79v243h-124zM468 457l9 -68q-144 -29 -322 -29h-57v391h81v-322q156 2 289 28zM514 -8q101 0 160 27.5t59 76.5t-59 77t-160 28t-159.5 -28t-58.5 -77t58.5 -76.5t159.5 -27.5zM514 265q139 0 219.5 -44.5t80.5 -124.5 q0 -79 -80.5 -124t-219.5 -45q-138 0 -218.5 45t-80.5 124q0 80 80.5 124.5t218.5 44.5z" />
<glyph unicode="&#xb0d0;" d="M170 736v-514q209 0 407 41l10 -71q-204 -40 -427 -40h-71v584h81zM883 529h-140v-198h140v-68h-140v-337h-82v898h82v-227h140v-68z" />
<glyph unicode="&#xb0d1;" d="M576 479l10 -67q-201 -40 -419 -40h-70v399h81v-330q212 2 398 38zM170 191v66h579v-332h-82v266h-497zM881 627h-132v-123h132v-67h-132v-129h-82v515h82v-128h132v-68z" />
<glyph unicode="&#xb0d4;" d="M577 444l9 -68q-200 -40 -419 -40h-70v421h81v-352q215 2 399 39zM276 238v-225h505v-67h-587v292h82zM880 594h-131v-153h131v-68h-131v-199h-82v648h82v-161h131v-67z" />
<glyph unicode="&#xb0d8;" d="M574 522l11 -69q-196 -39 -418 -39h-70v370h81v-302q208 2 396 40zM263 107v-103h519v-66h-600v232h486v92h-489v66h570v-221h-486zM882 648h-133v-101h133v-66h-133v-110h-82v452h82v-109h133v-66z" />
<glyph unicode="&#xb0e0;" d="M576 491l10 -67q-201 -40 -419 -40h-70v394h81v-325q212 2 398 38zM264 201v-196h405v196h-405zM184 -61v328h565v-328h-565zM881 629h-132v-119h132v-68h-132v-126h-82v506h82v-126h132v-67z" />
<glyph unicode="&#xb0e5;" d="M576 477l11 -67q-201 -41 -420 -41h-70v399h81v-330q214 2 398 39zM463 -8q98 0 156 29.5t58 80.5t-58 80.5t-156 29.5q-99 0 -157 -29.5t-58 -80.5t58 -80.5t157 -29.5zM463 277q135 0 215.5 -47t80.5 -128t-80.5 -128.5t-215.5 -47.5t-215.5 47.5t-80.5 128.5t80.5 128 t215.5 47zM881 620h-132v-123h132v-68h-132v-139h-82v533h82v-135h132v-68z" />
<glyph unicode="&#xb108;" d="M184 723v-513q214 2 387 37l11 -70q-189 -36 -410 -36h-70v582h82zM710 823h82v-899h-82v535h-275v68h275v296z" />
<glyph unicode="&#xb109;" d="M572 458l10 -70q-179 -35 -409 -35h-68v415h82v-345q218 2 385 35zM192 182v67h600v-323h-83v256h-517zM709 823h83v-533h-83v290h-254v68h254v175z" />
<glyph unicode="&#xb10b;" d="M709 320v276h-252v67h252v160h82v-503h-82zM571 474l10 -70q-183 -36 -408 -36h-68v406h82v-336q218 2 384 36zM153 204v66h298v-342h-81v276h-217zM710 285v-69q0 -75 41 -137.5t116 -90.5l-41 -63q-113 44 -157 159q-46 -115 -159 -160l-42 62q77 30 119 93.5t42 136.5 v69h81z" />
<glyph unicode="&#xb10c;" d="M709 173v387h-253v67h253v195h83v-649h-83zM571 425l11 -70q-179 -35 -409 -35h-68v435h82v-366q218 2 384 36zM299 13h516v-67h-598v281h82v-214z" />
<glyph unicode="&#xb110;" d="M709 359v248h-254v66h254v150h83v-464h-83zM572 500l11 -68q-181 -35 -409 -35h-69v383h82v-314q215 0 385 34zM297 4h527v-66h-608v226h494v87h-496v66h578v-216h-495v-97z" />
<glyph unicode="&#xb112;" d="M571 488l12 -69q-183 -34 -409 -34h-69v393h82v-325q210 0 384 35zM242 95v-96q146 2 227 16l8 -63q-89 -16 -267 -16h-47v220h208v83h-211v63h290v-207h-208zM576 240v-246h143v246h-143zM504 -67v369h287v-369h-287zM709 824h82v-481h-82v259h-253v66h253v156z" />
<glyph unicode="&#xb113;" d="M571 493l12 -68q-181 -35 -409 -35h-69v388h82v-319q209 0 384 34zM242 96v-97q146 2 227 16l8 -63q-89 -16 -267 -16h-47v220h208v84h-211v62h290v-206h-208zM717 0v131h-138v-131h138zM717 194v118h75v-376h-288v376h75v-118h138zM709 823h83v-476h-83v260h-253v66h253 v150z" />
<glyph unicode="&#xb118;" d="M572 469l10 -70q-177 -36 -409 -36h-68v406h82v-336q219 2 385 36zM294 197v-193h418v193h-418zM214 -62v324h578v-324h-578zM709 823h83v-517h-83v281h-254v68h254v168z" />
<glyph unicode="&#xb119;" d="M572 485l10 -70q-177 -36 -409 -36h-68v397h82v-327q219 2 385 36zM711 5v114h-418v-114h418zM711 183v115h81v-360h-580v360h81v-115h418zM709 823h83v-484h-83v258h-254v67h254v159z" />
<glyph unicode="&#xb11b;" d="M709 210v356h-255v67h255v190h83v-613h-83zM572 444l10 -70q-179 -35 -409 -35h-68v425h82v-356q219 2 385 36zM543 278v-38q0 -91 87 -159t212 -88l-33 -63q-104 19 -186 68.5t-121 123.5q-39 -74 -122.5 -124t-187.5 -69l-33 64q126 21 214 88.5t88 158.5v38h82z" />
<glyph unicode="&#xb11c;" d="M709 304v280h-255v67h255v172h82v-519h-82zM571 466l10 -70q-178 -35 -408 -35h-68v405h82v-336q220 2 384 36zM695 284v-60q0 -72 48 -135.5t132 -91.5l-41 -60q-131 48 -180 170q-47 -127 -165 -178q-121 47 -166 176q-53 -120 -178 -168l-42 60q82 30 131.5 94.5 t49.5 132.5v60h79v-60q0 -64 31.5 -122t92.5 -93q60 38 93.5 98.5t33.5 116.5v60h81z" />
<glyph unicode="&#xb11d;" d="M709 275v306h-254v67h254v175h83v-548h-83zM572 462l10 -70q-179 -35 -409 -35h-68v402h82v-332q218 2 385 35zM496 -9q102 0 159.5 28t57.5 78t-58 78.5t-159 28.5t-159 -28.5t-58 -78.5t57.5 -78t159.5 -28zM496 269q139 0 219 -45.5t80 -126.5q0 -80 -80 -125.5 t-219 -45.5t-219 45.5t-80 125.5q0 81 80 126.5t219 45.5z" />
<glyph unicode="&#xb123;" d="M709 344v276h-256v66h256v137h83v-479h-83zM572 523l10 -68q-180 -35 -409 -35h-69v360h83v-291q214 0 385 34zM496 -13q79 0 124 19.5t45 53.5t-45 53t-124 19q-80 0 -124.5 -19t-44.5 -53t44.5 -53.5t124.5 -19.5zM496 192q117 0 183.5 -34.5t66.5 -97.5t-66.5 -98 t-183.5 -35q-118 0 -184 35t-66 98t66 97.5t184 34.5zM537 294h275v-64h-633v64h276v89h82v-89z" />
<glyph unicode="&#xb124;" d="M178 727v-503q160 2 290 28l11 -69q-146 -30 -325 -30h-57v574h81zM546 522v279h78v-830h-78v483h-200v68h200zM737 824h78v-898h-78v898z" />
<glyph unicode="&#xb125;" d="M555 307v265h-191v67h191v164h78v-496h-78zM472 450l9 -67q-145 -28 -323 -28h-57v404h81v-337q157 2 290 28zM209 185v67h604v-326h-82v259h-522zM735 822h78v-525h-78v525z" />
<glyph unicode="&#xb128;" d="M813 822v-661h-78v661h78zM555 185v363h-191v66h191v190h78v-619h-78zM471 414l11 -66q-141 -27 -324 -27h-57v424h81v-357q160 2 289 26zM315 13h528v-67h-610v292h82v-225z" />
<glyph unicode="&#xb12c;" d="M813 823v-465h-78v465h78zM555 366v234h-191v66h191v138h78v-438h-78zM473 495l9 -66q-146 -28 -323 -28h-58v372h81v-304q153 2 291 26zM305 1h543v-63h-625v226h509v90h-511v64h592v-215h-508v-102z" />
<glyph unicode="&#xb134;" d="M555 320v261h-191v67h191v155h78v-483h-78zM470 464l9 -68q-141 -26 -321 -26h-57v395h81v-328q154 2 288 27zM307 203v-199h426v199h-426zM227 -62v330h586v-330h-586zM735 822h78v-511h-78v511z" />
<glyph unicode="&#xb135;" d="M555 336v254h-191v66h191v148h78v-468h-78zM472 466l10 -67q-143 -29 -323 -29h-58v395h81v-327q159 2 290 28zM732 5v114h-422v-114h422zM732 184v108h81v-354h-584v354h81v-108h422zM735 822h78v-492h-78v492z" />
<glyph unicode="&#xb137;" d="M813 823v-607h-78v607h78zM555 296v256h-191v66h191v186h78v-508h-78zM470 425l8 -67q-146 -31 -320 -31h-57v415h81v-347q153 2 288 30zM553 261v-32q0 -84 90.5 -150.5t213.5 -85.5l-31 -64q-103 18 -188.5 68t-125.5 122q-40 -72 -125 -122t-188 -68l-30 64 q123 19 212.5 85.5t89.5 150.5v32h82z" />
<glyph unicode="&#xb138;" d="M813 822v-525h-78v525h78zM555 311v259h-191v66h191v168h78v-493h-78zM470 453l9 -67q-144 -28 -321 -28h-57v405h81v-337q155 2 288 27zM700 272v-48q0 -72 48.5 -135t131.5 -91l-40 -61q-131 47 -181 170q-22 -58 -63.5 -105t-100.5 -72q-121 46 -167 173 q-53 -119 -178 -166l-40 61q82 30 131 94t49 132v48h79v-48q0 -64 31.5 -122t92.5 -93q60 39 93.5 99t33.5 116v48h80z" />
<glyph unicode="&#xb139;" d="M813 822v-545h-78v545h78zM555 308v251h-191v67h191v178h78v-496h-78zM471 437l8 -67q-146 -27 -321 -27h-57v410h81v-342q159 2 289 26zM517 -6q100 0 159 28t59 76t-59 75.5t-159 27.5q-101 0 -159.5 -27.5t-58.5 -75.5q0 -49 58.5 -76.5t159.5 -27.5zM517 265 q138 0 219 -44.5t81 -122.5q0 -79 -81 -123.5t-219 -44.5t-219 44.5t-81 123.5q0 78 81 122.5t219 44.5z" />
<glyph unicode="&#xb140;" d="M184 724v-522q212 0 376 32l9 -68q-165 -33 -399 -33h-68v591h82zM710 823h82v-898h-82v418h-268v67h268v137h-268v67h268v209z" />
<glyph unicode="&#xb141;" d="M554 423l11 -68q-162 -33 -393 -33h-67v447h82v-378q215 2 367 32zM191 170v67h600v-312h-82v245h-518zM709 823h82v-543h-82v207h-252v63h252v100h-252v64h252v109z" />
<glyph unicode="&#xb144;" d="M709 158v311h-253v65h253v106h-253v66h253v116h83v-664h-83zM561 392l9 -68q-183 -33 -397 -33h-68v467h82v-398q205 2 374 32zM299 13h516v-67h-598v269h82v-202z" />
<glyph unicode="&#xb148;" d="M709 348v173h-252v63h252v86h-252v63h252v90h83v-475h-83zM557 468l10 -67q-163 -30 -395 -30h-67v412h82v-344q217 0 370 29zM297 3h525v-65h-606v220h494v83h-496v65h577v-209h-494v-94z" />
<glyph unicode="&#xb150;" d="M553 434l11 -66q-166 -32 -391 -32h-66v442h81v-375q211 2 365 31zM295 190v-186h416v186h-416zM215 -62v317h577v-317h-577zM709 823h83v-527h-83v204h-252v64h252v94h-252v64h252v101z" />
<glyph unicode="&#xb151;" d="M559 452l8 -67q-160 -31 -394 -31h-66v430h81v-362q218 0 371 30zM710 4v115h-411v-115h411zM710 184v105h82v-351h-574v351h81v-105h411zM709 823h83v-492h-83v181h-252v64h252v89h-252v63h252v95z" />
<glyph unicode="&#xb154;" d="M709 295v208h-252v64h252v90h-252v64h252v102h82v-528h-82zM555 433l9 -66q-162 -31 -391 -31h-66v435h81v-368q208 0 367 30zM694 272v-47q0 -73 48.5 -136t132.5 -91l-41 -61q-65 23 -111.5 68t-69.5 103q-47 -129 -164 -178q-122 46 -166 176q-55 -122 -178 -169 l-42 61q82 30 131.5 94.5t49.5 132.5v47h79v-47q0 -63 32 -122t92 -94q60 38 93.5 99t33.5 117v47h80z" />
<glyph unicode="&#xb155;" d="M709 272v223h-252v64h252v94h-252v64h252v106h83v-551h-83zM566 434l10 -67q-162 -33 -401 -33h-68v435h81v-367q224 0 378 32zM496 -9q101 0 159 27.5t58 76.5t-57.5 77t-159.5 28t-159.5 -28t-57.5 -77t58 -76.5t159 -27.5zM496 264q139 0 219 -44.5t80 -124.5 t-80 -124.5t-219 -44.5t-219 44.5t-80 124.5t80 124.5t219 44.5z" />
<glyph unicode="&#xb158;" d="M552 439l11 -67q-159 -32 -390 -32h-66v430h81v-363q209 0 364 32zM190 197v65h602v-335h-83v129l-530 -25l-10 65l540 20v81h-519zM709 823h83v-518h-83v197h-252v64h252v93h-252v64h252v100z" />
<glyph unicode="&#xb15c;" d="M178 722v-502q156 2 288 27l10 -69q-141 -29 -322 -29h-57v573h81zM546 615v186h78v-830h-78v385h-185v67h185v125h-185v67h185zM737 823h78v-897h-78v897z" />
<glyph unicode="&#xb160;" d="M813 822v-667h-78v667h78zM555 179v277h-181v65h181v93h-181v65h181v125h78v-625h-78zM467 386l10 -67q-132 -26 -319 -26h-57v450h81v-383q163 2 285 26zM315 13h528v-67h-610v274h82v-207z" />
<glyph unicode="&#xb178;" d="M500 109h367v-67h-815v67h366v240h-266v397h82v-331h540v-66h-274v-240z" />
<glyph unicode="&#xb179;" d="M148 158v67h616v-299h-82v232h-534zM500 382h365v-66h-812v66h365v122h-256v299h82v-232h529v-67h-273v-122z" />
<glyph unicode="&#xb17c;" d="M238 214v-201h541v-67h-623v268h82zM500 354h365v-67h-811v67h365v129h-256v306h81v-240h528v-66h-272v-129z" />
<glyph unicode="&#xb180;" d="M237 99v-97h556v-64h-638v221h526v83h-528v64h610v-207h-526zM500 448h366v-67h-813v67h366v97h-257v265h81v-199h528v-66h-271v-97z" />
<glyph unicode="&#xb182;" d="M218 91v-92q150 0 231 15l7 -61q-85 -16 -267 -16h-48v213h208v81h-210v61h287v-201h-208zM554 231v-233h147v233h-147zM483 -63v355h289v-355h-289zM501 429h364v-66h-812v66h366v102h-257v274h82v-208h526v-66h-269v-102z" />
<glyph unicode="&#xb188;" d="M237 175v-171h446v171h-446zM157 -62v302h606v-302h-606zM501 394h364v-66h-811v66h364v118h-255v295h82v-229h527v-66h-271v-118z" />
<glyph unicode="&#xb189;" d="M677 5v112h-433v-112h433zM677 181v100h81v-343h-595v343h81v-100h433zM501 412h364v-66h-811v66h364v107h-255v288h82v-222h526v-66h-270v-107z" />
<glyph unicode="&#xb18b;" d="M501 257v-28q0 -87 87 -152t214 -84l-31 -64q-106 18 -189.5 66t-122.5 120q-39 -71 -122.5 -119t-189.5 -66l-32 64q127 19 214.5 83.5t87.5 151.5v28h84zM501 385h363v-66h-810v66h365v122h-256v296h82v-230h522v-66h-266v-122z" />
<glyph unicode="&#xb18d;" d="M459 -9q105 0 164 26t59 73q0 48 -59 74t-164 26q-107 0 -166 -26t-59 -74q0 -47 59.5 -73t165.5 -26zM459 254q144 0 225 -43t81 -121q0 -77 -81.5 -120t-224.5 -43q-145 0 -226.5 42.5t-81.5 120.5t81.5 121t226.5 43zM501 388h364v-66h-811v66h364v119h-255v297h82 v-231h527v-66h-271v-119z" />
<glyph unicode="&#xb192;" d="M361 193v-189h196v189h-196zM638 193v-189h145v-66h-648v66h145v189h-137v66h632v-66h-137zM500 414h365v-66h-811v66h364v114h-255v275h82v-209h528v-66h-273v-114z" />
<glyph unicode="&#xb193;" d="M458 -15q185 0 185 63t-185 63q-184 0 -184 -63t184 -63zM458 170q130 0 200 -31.5t70 -90.5q0 -58 -70 -89.5t-200 -31.5q-129 0 -199 31.5t-70 89.5q0 59 70 90.5t199 31.5zM499 357v-82h290v-63h-661v63h289v82h82zM501 458h364v-66h-812v66h366v90h-255v262h82v-197 h527v-65h-272v-90z" />
<glyph unicode="&#xb194;" d="M378 389v-196q132 5 227 17l5 -59q-214 -34 -557 -32l-12 67q135 0 255 4v199h-189v346h82v-279h374v-67h-185zM883 446v-68h-139v-452h-82v897h82v-377h139z" />
<glyph unicode="&#xb198;" d="M612 371l6 -59q-200 -39 -562 -39l-9 67q157 0 245 4v132h-175v288h82v-221h356v-67h-181v-129q144 9 238 24zM266 198v-185h514v-67h-596v252h82zM751 530h129v-68h-129v-318h-82v678h82v-292z" />
<glyph unicode="&#xb19c;" d="M614 461l5 -58q-202 -33 -563 -33l-7 66q153 0 237 2v105h-170v243h82v-177h354v-66h-184v-102q158 8 246 20zM249 93v-93h535v-64h-616v217h502v83h-505v63h587v-206h-503zM752 611h128v-68h-128v-204h-82v484h82v-212z" />
<glyph unicode="&#xb1a8;" d="M614 413l5 -59q-205 -38 -560 -38l-9 66q125 0 240 4v113h-175v268h82v-202h360v-66h-185v-109q139 7 242 23zM670 251v-30q0 -72 48 -133t132 -88l-41 -60q-127 44 -179 163q-46 -125 -166 -174q-119 47 -165 173q-53 -118 -178 -162l-41 60q83 28 131.5 89.5 t48.5 131.5v30h79v-33q0 -60 32 -117.5t93 -92.5q61 36 93.5 93.5t32.5 116.5v33h80zM751 580h129v-68h-129v-229h-82v539h82v-242z" />
<glyph unicode="&#xb1cc;" d="M396 388v-193q158 8 249 20l6 -61q-218 -35 -583 -35l-11 69q137 0 257 4v196h-187v346h82v-279h382v-67h-195zM704 823h82v-897h-82v897z" />
<glyph unicode="&#xb1d0;" d="M788 823v-664h-83v664h83zM635 373l5 -61q-232 -34 -574 -34l-11 68q136 0 255 4v131h-176v282h82v-215h358v-67h-182v-128q166 10 243 20zM285 13h525v-67h-607v264h82v-197z" />
<glyph unicode="&#xb1d4;" d="M786 822v-472h-82v472h82zM636 466l5 -59q-233 -34 -577 -34l-10 66q138 0 258 4v102h-178v241h82v-175h359v-66h-181v-98q152 7 242 19zM279 1h538v-65h-620v221h507v83h-510v64h592v-208h-507v-95z" />
<glyph unicode="&#xb1dc;" d="M636 419l6 -61q-220 -38 -577 -38l-11 67q133 0 256 4v116h-177v272h82v-206h360v-66h-183v-112q128 6 244 24zM281 174v-170h427v170h-427zM201 -62v301h587v-301h-587zM705 822h83v-541h-83v541z" />
<glyph unicode="&#xb1dd;" d="M634 432l5 -60q-230 -36 -576 -36l-10 67q107 0 257 5v112h-177v264h82v-198h360v-66h-183v-108q122 4 242 20zM707 4v107h-422v-107h422zM707 175v101h80v-338h-583v338h81v-101h422zM705 822h83v-503h-83v503z" />
<glyph unicode="&#xb1df;" d="M788 822v-628h-83v628h83zM634 395l5 -61q-233 -34 -574 -34l-11 68q137 0 256 4v127h-178v271h83v-205h359v-66h-182v-124q166 10 242 20zM532 249v-31q0 -82 87 -144t212 -80l-31 -65q-105 17 -187.5 63.5t-121.5 115.5q-39 -69 -121.5 -115.5t-187.5 -63.5l-31 65 q126 18 212 80t86 144v31h83z" />
<glyph unicode="&#xb1e8;" d="M361 345v-231h200v231h-200zM643 114h224v-68h-814v68h226v231h-129v396h82v-329h542v-67h-131v-231z" />
<glyph unicode="&#xb1e9;" d="M148 157v67h616v-304h-82v237h-534zM358 505v-125h200v125h-200zM640 380h225v-67h-812v67h223v125h-116v298h82v-231h529v-67h-131v-125z" />
<glyph unicode="&#xb1ec;" d="M238 216v-203h540v-67h-622v270h82zM360 485v-133h198v133h-198zM640 352h225v-67h-811v67h224v133h-115v304h81v-238h528v-66h-132v-133z" />
<glyph unicode="&#xb1f0;" d="M237 97v-97h556v-64h-638v221h526v84h-528v63h610v-207h-526zM359 544v-100h199v100h-199zM640 444h226v-67h-813v67h224v100h-115v266h81v-199h528v-67h-131v-100z" />
<glyph unicode="&#xb1f9;" d="M677 4v112h-433v-112h433zM677 180v100h81v-342h-595v342h81v-100h433zM358 521v-111h200v111h-200zM640 410h225v-66h-811v66h222v111h-113v286h82v-220h526v-66h-131v-111z" />
<glyph unicode="&#xb1fb;" d="M501 255v-28q0 -87 87 -151.5t214 -83.5l-30 -63q-106 17 -190 65t-123 120q-39 -71 -123 -119t-189 -66l-32 64q127 19 214.5 83t87.5 151v28h84zM359 510v-126h199v126h-199zM640 384h225v-67h-811v67h223v126h-114v294h82v-228h523v-66h-128v-126z" />
<glyph unicode="&#xb1fd;" d="M458 -8q106 0 165 26t59 73t-59 73t-165 26t-165 -26t-59 -73t59 -73t165 -26zM458 255q145 0 226 -43t81 -121t-81 -120.5t-226 -42.5t-226 42.5t-81 120.5t81 121t226 43zM358 509v-121h201v121h-201zM640 388h225v-66h-811v66h222v121h-113v296h82v-230h527v-66h-132 v-121z" />
<glyph unicode="&#xb204;" d="M773 522v-67h-616v322h83v-255h533zM867 320v-67h-369v-327h-82v327h-364v67h815z" />
<glyph unicode="&#xb205;" d="M773 570v-66h-611v299h82v-233h529zM865 341h-365v-123h264v-301h-82v234h-534v67h270v123h-365v67h812v-67z" />
<glyph unicode="&#xb208;" d="M772 550v-65h-608v304h81v-239h527zM238 208v-195h540v-67h-622v262h82zM53 379h811v-66h-358v-184h-82v184h-371v66z" />
<glyph unicode="&#xb20b;" d="M772 576v-66h-609v294h83v-228h526zM865 351h-365v-113h266v-67h-534v-166h541v-67h-622v300h268v113h-365v66h811v-66z" />
<glyph unicode="&#xb20c;" d="M771 609v-66h-609v267h81v-201h528zM866 398h-367v-94h264v-207h-526v-97h556v-64h-638v221h526v84h-528v63h264v94h-364v67h813v-67z" />
<glyph unicode="&#xb214;" d="M772 578v-66h-609v295h82v-229h527zM683 5v171h-446v-171h446zM865 351h-367v-110h265v-302h-606v302h260v110h-364v67h812v-67z" />
<glyph unicode="&#xb215;" d="M771 585v-66h-608v288h82v-222h526zM677 4v108h-433v-108h433zM677 177v106h81v-345h-595v345h81v-106h433zM54 427h811v-66h-365v-133h-82v133h-364v66z" />
<glyph unicode="&#xb217;" d="M773 586v-66h-609v284h82v-218h527zM500 223v-36q0 -74 87.5 -127.5t214.5 -67.5l-28 -63q-108 13 -192.5 55t-123.5 106q-40 -63 -125 -105.5t-192 -55.5l-29 63q127 15 215 69t88 126v36h85zM53 431h814v-67h-368v-106h-82v106h-364v67z" />
<glyph unicode="&#xb219;" d="M772 573v-66h-609v297h82v-231h527zM682 90q0 48 -59 74t-164 26q-107 0 -166 -26t-59 -74q0 -47 59.5 -73t165.5 -26q105 0 164 26t59 73zM865 351h-365v-98q125 -6 195 -48.5t70 -114.5q0 -77 -81.5 -120t-224.5 -43q-145 0 -226.5 42.5t-81.5 120.5q0 72 70 114.5 t197 48.5v98h-364v66h811v-66z" />
<glyph unicode="&#xb220;" d="M572 543v-66h-442v298h82v-232h360zM633 383l5 -61q-96 -13 -258 -22v-347h-82v344q-113 -4 -242 -4l-11 69q377 0 588 21zM705 822h82v-897h-82v228h-203v65h203v604z" />
<glyph unicode="&#xb234;" d="M521 379h185v444h82v-562h-82v58h-185v60zM561 627v-65h-422v237h83v-172h339zM287 267v148q-103 -5 -229 -5l-10 66q382 2 577 30l7 -59q-120 -20 -263 -28v-152h-82zM692 231v-20q0 -69 48.5 -128.5t132.5 -85.5l-39 -60q-133 45 -182 161q-46 -122 -166 -169 q-120 47 -166 169q-50 -117 -181 -161l-38 60q83 27 131.5 86.5t48.5 127.5v20h79v-20q0 -59 32.5 -114.5t93.5 -90.5q61 35 93.5 91.5t32.5 113.5v20h80z" />
<glyph unicode="&#xb23c;" d="M472 552v-66h-367v267h82v-201h285zM507 406l7 -60q-93 -17 -200 -23v-324h-79v318q-112 -5 -184 -5l-9 68q292 2 465 26zM565 251v551h78v-829h-78v214h-168v64h168zM734 823h79v-896h-79v896z" />
<glyph unicode="&#xb258;" d="M570 536v-67h-434v294h82v-227h352zM645 368l4 -61q-122 -19 -261 -25v-329h-82v325q-116 -4 -247 -4l-10 68q392 2 596 26zM709 822h82v-897h-82v897z" />
<glyph unicode="&#xb25c;" d="M783 823v-679h-82v679h82zM561 562v-66h-421v269h82v-203h339zM322 174v158q-114 -5 -257 -5l-11 69q362 0 582 23l6 -62q-113 -13 -238 -21v-162h-82zM265 13h545v-67h-627v261h82v-194z" />
<glyph unicode="&#xb260;" d="M783 822v-485h-82v485h82zM559 614v-65h-420v243h82v-178h338zM275 0h539v-64h-621v216h508v81h-510v64h119v110q-143 -5 -244 -5l-11 67q384 2 583 22l5 -59q-118 -15 -250 -21v-114h390v-206h-508v-91z" />
<glyph unicode="&#xb268;" d="M561 581v-66h-422v263h82v-197h340zM702 5v163h-427v-163h427zM392 363v-130h390v-294h-587v294h115v126q-109 -5 -245 -5l-11 67q386 2 583 29l6 -59q-117 -20 -251 -28zM701 823h82v-546h-82v546z" />
<glyph unicode="&#xb269;" d="M561 601v-66h-422v248h82v-182h340zM322 240v145q-137 -6 -255 -6l-11 66q368 0 581 29l6 -58q-106 -18 -239 -26v-150h-82zM702 4v98h-429v-98h429zM702 165v100h81v-327h-591v327h81v-100h429zM701 823h82v-516h-82v516z" />
<glyph unicode="&#xb274;" d="M768 520v-66h-612v323h82v-257h530zM864 325v-68h-210v-331h-82v331h-228v-331h-81v331h-210v68h811z" />
<glyph unicode="&#xb275;" d="M772 573v-66h-609v293h82v-227h527zM565 211v135h-212v-135h212zM865 346h-219v-135h119v-293h-82v226h-545v67h133v135h-217v67h811v-67z" />
<glyph unicode="&#xb27c;" d="M771 609v-66h-609v267h82v-201h527zM566 304v99h-213v-99h213zM866 403h-218v-99h115v-207h-526v-97h556v-64h-638v221h526v84h-528v63h118v99h-219v67h814v-67z" />
<glyph unicode="&#xb284;" d="M772 589v-66h-609v279h82v-213h527zM565 240v120h-211v-120h211zM685 5v169h-451v-169h451zM865 360h-218v-120h119v-301h-612v301h118v120h-219v66h812v-66z" />
<glyph unicode="&#xb285;" d="M773 590v-66h-609v280h82v-214h527zM678 1v97h-438v-97h438zM678 162v104h85v-332h-607v332h84v-104h438zM53 436h812v-66h-241v-133h-81v133h-167v-133h-82v133h-241v66z" />
<glyph unicode="&#xb289;" d="M772 574v-66h-609v296h82v-230h527zM582 244v108h-248v-108q62 10 124 10q64 0 124 -10zM458 -9q105 0 164.5 26.5t59.5 72.5q0 48 -59 74t-165 26t-165 -26t-59 -74q0 -47 59 -73t165 -26zM865 352h-202v-131q102 -42 102 -131q0 -78 -81 -120.5t-226 -42.5 q-144 0 -225.5 42.5t-81.5 120.5q0 88 102 132v130h-199v66h811v-66z" />
<glyph unicode="&#xb290;" d="M773 417v-67h-621v394h82v-327h539zM52 117h814v-68h-814v68z" />
<glyph unicode="&#xb291;" d="M773 573v-66h-611v295h84v-229h527zM142 156v66h623v-302h-81v236h-542zM53 405h812v-65h-812v65z" />
<glyph unicode="&#xb294;" d="M772 553v-67h-610v304h82v-237h528zM238 210v-195h539v-67h-621v262h82zM52 366h813v-66h-813v66z" />
<glyph unicode="&#xb298;" d="M771 609v-66h-609v267h81v-201h528zM237 97v-95h556v-64h-638v220h526v86h-528v63h610v-210h-526zM52 455h814v-67h-814v67z" />
<glyph unicode="&#xb299;" d="M771 601v-67h-608v274h81v-207h527zM221 97v-96q183 0 283 22l9 -62q-103 -23 -316 -23h-55v219h216v83h-218v63h297v-206h-216zM485 236v67h285v-369h-81v302h-204zM53 450h812v-67h-812v67z" />
<glyph unicode="&#xb29a;" d="M771 603v-67h-608v273h82v-206h526zM222 96v-96q149 0 229 15l8 -61q-86 -16 -267 -16h-47v217h208v84h-210v61h286v-204h-207zM559 239v-239h147v239h-147zM488 -62v362h289v-362h-289zM53 450h812v-68h-812v68z" />
<glyph unicode="&#xb2a0;" d="M772 578v-66h-609v295h82v-229h527zM237 176v-171h446v171h-446zM157 -61v302h606v-302h-606zM53 414h812v-67h-812v67z" />
<glyph unicode="&#xb2a1;" d="M771 585v-67h-608v289h82v-222h526zM677 4v112h-433v-112h433zM677 180v100h81v-342h-595v342h81v-100h433zM54 422h811v-66h-811v66z" />
<glyph unicode="&#xb2a3;" d="M768 573v-66h-605v296h82v-230h523zM502 262v-29q0 -87 87 -151t214 -84l-31 -63q-106 18 -189.5 66t-122.5 119q-39 -71 -123 -119t-190 -66l-32 64q128 19 215.5 83t87.5 151v29h84zM54 401h811v-66h-811v66z" />
<glyph unicode="&#xb2a5;" d="M772 573v-66h-609v297h82v-231h527zM458 -7q105 0 164.5 26.5t59.5 72.5q0 48 -59 74t-165 26t-165 -26t-59 -74q0 -47 59 -73t165 -26zM458 256q144 0 225.5 -43t81.5 -121t-81.5 -120.5t-225.5 -42.5t-225.5 42.5t-81.5 120.5t81.5 121t225.5 43zM54 403h811v-67h-811 v67z" />
<glyph unicode="&#xb2a6;" d="M772 577v-67h-607v290h83v-223h524zM769 192h-265q12 -76 97.5 -129t203.5 -69l-31 -63q-107 16 -191.5 61.5t-123.5 115.5q-38 -69 -122.5 -115t-191.5 -62l-31 63q119 16 204 69.5t97 128.5h-266v65h620v-65zM54 418h811v-67h-811v67z" />
<glyph unicode="&#xb2aa;" d="M771 588v-66h-607v279h82v-213h525zM361 198v-194h196v194h-196zM638 198v-194h144v-66h-647v66h145v194h-137v66h632v-66h-137zM54 426h811v-66h-811v66z" />
<glyph unicode="&#xb2ac;" d="M579 480v-67h-451v332h82v-265h369zM67 138l-11 69q392 2 590 27l5 -61q-224 -35 -584 -35zM706 823h82v-896h-82v896z" />
<glyph unicode="&#xb2b0;" d="M789 822v-659h-82v659h82zM574 553v-67h-438v286h82v-219h356zM635 392l5 -61q-232 -34 -575 -34l-11 68q380 2 581 27zM290 13h523v-67h-605v265h82v-198z" />
<glyph unicode="&#xb2b4;" d="M786 822v-475h-82v475h82zM570 606v-65h-435v243h82v-178h353zM637 474l4 -59q-233 -34 -576 -34l-10 66q369 2 582 27zM278 5h539v-67h-620v220h508v83h-511v64h592v-208h-508v-92z" />
<glyph unicode="&#xb2c8;" d="M191 736v-508q214 0 423 42l9 -70q-205 -42 -440 -42h-74v578h82zM706 823h82v-896h-82v896z" />
<glyph unicode="&#xb2c9;" d="M609 484l12 -67q-209 -41 -440 -41h-73v396h82v-328q215 0 419 40zM189 191v67h600v-334h-82v267h-518zM707 822h82v-518h-82v518z" />
<glyph unicode="&#xb2cc;" d="M789 822v-651h-82v651h82zM610 450l11 -68q-203 -40 -440 -40h-73v414h83v-345q228 0 419 39zM285 13h531v-67h-613v290h82v-223z" />
<glyph unicode="&#xb2d0;" d="M789 823v-448h-82v448h82zM609 523l12 -66q-196 -40 -441 -40h-72v363h82v-296q228 0 419 39zM292 3h527v-65h-609v231h497v95h-499v64h581v-220h-497v-105z" />
<glyph unicode="&#xb2d2;" d="M610 515l10 -66q-195 -40 -439 -40h-73v370h83v-303q227 0 419 39zM248 102v-103q133 0 223 16l7 -62q-90 -16 -263 -16h-46v224h206v87h-209v62h288v-208h-206zM577 250v-253h141v253h-141zM506 -64v374h283v-374h-283zM707 823h82v-468h-82v468z" />
<glyph unicode="&#xb2d8;" d="M609 492l11 -68q-204 -41 -439 -41h-73v388h82v-319q225 0 419 40zM288 207v-202h420v202h-420zM208 -61v333h580v-333h-580zM706 824h82v-509h-82v509z" />
<glyph unicode="&#xb2d9;" d="M608 503l12 -68q-205 -41 -440 -41h-72v384h82v-315q224 0 418 40zM708 5v119h-415v-119h415zM708 188v120h81v-370h-577v370h81v-120h415zM707 822h82v-472h-82v472z" />
<glyph unicode="&#xb2db;" d="M789 824v-607h-82v607h82zM610 466l11 -67q-196 -40 -441 -40h-72v402h82v-334q226 0 420 39zM540 291v-37q0 -95 87.5 -166t214.5 -93l-33 -65q-106 21 -189 74t-122 130q-39 -77 -122.5 -130t-189.5 -74l-33 65q127 22 215 93t88 166v37h84z" />
<glyph unicode="&#xb2dd;" d="M787 823v-536h-82v536h82zM610 472l10 -68q-195 -40 -439 -40h-73v399h82v-330q234 0 420 39zM490 -7q102 0 160.5 29t58.5 81t-58.5 81.5t-160.5 29.5t-161 -29.5t-59 -81.5t59 -81t161 -29zM490 280q139 0 220 -47t81 -130q0 -82 -81 -129t-220 -47t-220.5 47 t-81.5 129q0 83 81 130t221 47z" />
<glyph unicode="&#xb2e2;" d="M788 822v-484h-82v484h82zM611 496l12 -67q-202 -42 -441 -42h-74v383h82v-314q227 0 421 40zM400 219v-215h190v215h-190zM671 4h133v-66h-617v66h132v215h-124v65h599v-65h-123v-215z" />
<glyph unicode="&#xb2e4;" d="M173 669v-451q234 0 404 30l9 -68q-169 -32 -424 -32h-71v589h417v-68h-335zM891 469v-68h-148v-477h-82v899h82v-354h148z" />
<glyph unicode="&#xb2e5;" d="M572 460l9 -66q-151 -32 -417 -32h-70v397h397v-66h-315v-263q250 0 396 30zM166 179v67h583v-321h-82v254h-501zM882 597v-68h-133v-234h-82v528h82v-226h133z" />
<glyph unicode="&#xb2e6;" d="M572 465l9 -67q-153 -31 -417 -31h-70v394h395v-66h-313v-260q250 0 396 30zM146 199v66h284v-339h-81v273h-203zM472 199v66h277v-339h-81v273h-196zM882 596v-68h-133v-220h-82v515h82v-227h133z" />
<glyph unicode="&#xb2e8;" d="M572 430l9 -66q-153 -31 -417 -31h-70v412h397v-66h-315v-279q243 0 396 30zM273 239v-226h516v-67h-598v293h82zM749 557h133v-68h-133v-315h-82v649h82v-266z" />
<glyph unicode="&#xb2eb;" d="M572 468l9 -67q-153 -31 -417 -31h-70v395h395v-66h-313v-261q250 0 396 30zM271 201v-197h503v-66h-585v329h569v-66h-487zM749 612h133v-68h-133v-226h-82v506h82v-212z" />
<glyph unicode="&#xb2ec;" d="M572 502l10 -65q-155 -32 -420 -32h-69v366h396v-66h-315v-234q243 0 398 31zM262 105v-101h520v-66h-600v229h486v94h-489v65h570v-221h-487zM749 634h133v-67h-133v-195h-82v451h82v-189z" />
<glyph unicode="&#xb2ed;" d="M572 484l10 -66q-155 -32 -420 -32h-69v381h396v-66h-315v-248q243 0 398 31zM225 95v-94q175 0 269 19l9 -62q-98 -20 -304 -20h-54v217h211v84h-213v63h292v-207h-210zM473 236v66h276v-369h-81v303h-195zM882 613v-67h-133v-204h-82v482h82v-211h133z" />
<glyph unicode="&#xb2ee;" d="M572 484l10 -65q-160 -33 -420 -33h-69v381h396v-66h-315v-248q244 0 398 31zM211 96v-94q135 0 222 15l7 -63q-93 -16 -261 -16h-47v218h203v82h-206v63h285v-205h-203zM540 239v-239h137v239h-137zM469 -62v363h280v-363h-280zM882 617v-68h-133v-206h-82v481h82v-207 h133z" />
<glyph unicode="&#xb2ef;" d="M572 484l10 -65q-155 -32 -420 -32h-69v380h396v-66h-315v-248q243 0 398 31zM210 96v-95q134 0 221 16l6 -61q-86 -17 -260 -17h-46v214h201v83h-203v63h283v-203h-202zM674 3v128h-137v-128h137zM674 193v116h75v-371h-286v371h74v-116h137zM882 621v-68h-133v-208h-82 v479h82v-203h133z" />
<glyph unicode="&#xb2f3;" d="M572 490l10 -66q-155 -32 -420 -32h-69v377h396v-66h-315v-244q244 0 398 31zM207 98v-96q140 0 227 17l8 -62q-93 -18 -265 -18h-48v218h202v85h-204v61h282v-205h-202zM622 -16q38 0 60.5 17.5t22.5 47.5t-22.5 47.5t-60.5 17.5t-60.5 -17.5t-22.5 -47.5t22.5 -47.5 t60.5 -17.5zM622 172q67 0 110 -33.5t43 -89.5q0 -55 -43 -88.5t-110 -33.5t-110 33.5t-43 88.5q0 56 43 89.5t110 33.5zM663 350v-82h149v-61h-374v61h145v82h80zM749 629h133v-68h-133v-184h-82v446h82v-194z" />
<glyph unicode="&#xb2f4;" d="M572 463l9 -66q-157 -32 -417 -32h-70v398h395v-66h-313v-264q243 0 396 30zM266 202v-197h402v197h-402zM186 -61v328h563v-328h-563zM882 604v-68h-133v-221h-82v509h82v-220h133z" />
<glyph unicode="&#xb2f5;" d="M572 473l9 -66q-151 -32 -417 -32h-70v389h395v-66h-313v-255q250 0 396 30zM668 8v112h-403v-112h403zM668 185v112h81v-356h-565v356h81v-112h403zM882 613v-68h-133v-200h-82v479h82v-211h133z" />
<glyph unicode="&#xb2f7;" d="M573 441l9 -66q-157 -32 -419 -32h-70v410h396v-66h-315v-276q251 0 399 30zM519 278v-34q0 -92 86.5 -160.5t212.5 -89.5l-33 -64q-103 19 -185 69.5t-121 124.5q-39 -74 -121.5 -124.5t-186.5 -69.5l-33 64q126 21 213 89.5t87 160.5v34h81zM749 572h133v-68h-133v-273 h-82v592h82v-251z" />
<glyph unicode="&#xb2f8;" d="M572 465l9 -67q-160 -31 -417 -31h-70v397h395v-66h-313v-263q245 0 396 30zM679 278v-54q0 -72 48.5 -135t131.5 -92l-41 -60q-64 23 -110 68t-69 104q-47 -128 -165 -180q-120 49 -166 176q-53 -121 -177 -168l-41 60q82 31 131 95.5t49 131.5v54h79v-54 q0 -64 31.5 -121.5t92.5 -93.5q60 39 93 99.5t33 115.5v54h80zM749 606h133v-68h-133v-225h-82v511h82v-218z" />
<glyph unicode="&#xb2f9;" d="M573 459l9 -67q-153 -31 -419 -31h-70v393h396v-66h-315v-260q253 0 399 31zM464 -7q99 0 156.5 28.5t57.5 77.5t-57.5 77.5t-156.5 28.5q-100 0 -157.5 -28.5t-57.5 -77.5t57.5 -77.5t157.5 -28.5zM464 271q137 0 216 -45.5t79 -126.5t-79 -126.5t-216 -45.5 t-216.5 45.5t-79.5 126.5t79.5 126.5t216.5 45.5zM750 590h132v-68h-132v-233h-83v534h83v-233z" />
<glyph unicode="&#xb2fa;" d="M572 470l9 -67q-157 -31 -417 -31h-70v391h395v-66h-313v-257q245 0 396 30zM764 197h-250q7 -71 89.5 -129.5t194.5 -76.5l-31 -63q-99 17 -178.5 64.5t-117.5 114.5q-37 -67 -116.5 -113.5t-179.5 -64.5l-31 63q114 18 196 75.5t89 129.5h-251v66h586v-66zM749 596h133 v-67h-133v-222h-82v517h82v-228z" />
<glyph unicode="&#xb2fb;" d="M572 497l10 -67q-155 -32 -419 -32h-70v373h396v-65h-315v-241q244 0 398 32zM768 183h-255q10 -67 92.5 -121t193.5 -70l-29 -63q-101 17 -182 62.5t-119 110.5q-38 -65 -118.5 -110.5t-181.5 -62.5l-30 63q111 16 193.5 70t93.5 121h-256v64h258v98h82v-98h258v-64z M749 617h133v-67h-133v-232h-82v505h82v-206z" />
<glyph unicode="&#xb2ff;" d="M572 513l10 -66q-155 -32 -420 -32h-69v360h396v-67h-315v-226q243 0 398 31zM474 -15q77 0 120.5 18.5t43.5 51.5q0 34 -43.5 52.5t-120.5 18.5t-121 -18.5t-44 -52.5q0 -33 44 -51.5t121 -18.5zM474 186q117 0 183 -34.5t66 -96.5t-66.5 -96t-182.5 -34 q-117 0 -183.5 34t-66.5 96t66.5 96.5t183.5 34.5zM515 376v-87h271v-63h-625v63h272v87h82zM749 627h133v-68h-133v-210h-82v473h82v-195z" />
<glyph unicode="&#xb300;" d="M166 647v-432q184 2 303 27l7 -68q-126 -27 -332 -27h-59v567h334v-67h-253zM736 823h79v-897h-79v470h-127v-425h-77v832h77v-340h127v360z" />
<glyph unicode="&#xb301;" d="M476 447l8 -67q-134 -27 -333 -27h-58v401h340v-66h-259v-268q182 2 302 27zM208 179v67h602v-321h-82v254h-520zM731 822h79v-533h-79v238h-120v-233h-78v512h78v-212h120v228z" />
<glyph unicode="&#xb304;" d="M611 499v-314h-78v621h78v-240h120v256h79v-665h-79v342h-120zM476 416l8 -67q-129 -26 -333 -26h-58v414h340v-67h-259v-280q187 2 302 26zM307 13h529v-67h-611v290h82v-223z" />
<glyph unicode="&#xb308;" d="M611 555v-193h-78v442h78v-183h120v201h79v-468h-79v201h-120zM478 493l8 -65q-133 -27 -335 -27h-58v366h340v-66h-259v-234q186 2 304 26zM301 4h543v-66h-624v225h509v87h-511v65h592v-214h-509v-97z" />
<glyph unicode="&#xb310;" d="M477 457l8 -66q-129 -27 -334 -27h-58v394h341v-67h-260v-260q188 2 303 26zM297 198v-194h432v194h-432zM217 -61v323h593v-323h-593zM731 822h79v-517h-79v231h-120v-222h-78v492h78v-204h120v220z" />
<glyph unicode="&#xb311;" d="M477 461l8 -67q-129 -27 -334 -27h-58v391h341v-67h-260v-257q189 2 303 27zM729 6v114h-426v-114h426zM729 184v107h81v-352h-589v352h82v-107h426zM731 822h79v-490h-79v211h-120v-202h-78v465h78v-197h120v213z" />
<glyph unicode="&#xb313;" d="M611 521v-213h-78v498h78v-218h120v235h79v-593h-79v291h-120zM477 437l8 -66q-129 -27 -334 -27h-58v401h341v-67h-260v-267q187 2 303 26zM552 271v-35q0 -86 90.5 -154.5t213.5 -88.5l-34 -63q-103 19 -187.5 70t-123.5 124q-40 -73 -124 -124t-186 -70l-35 63 q123 20 213 88.5t90 154.5v35h83z" />
<glyph unicode="&#xb314;" d="M611 533v-221h-78v494h78v-206h120v222h79v-517h-79v228h-120zM477 452l8 -67q-129 -27 -334 -27h-58v397h341v-66h-260v-264q189 2 303 27zM700 272v-57q0 -71 48.5 -133.5t131.5 -91.5l-40 -61q-65 23 -111.5 67t-69.5 102q-48 -126 -165 -177q-122 48 -167 174 q-25 -56 -71 -99.5t-107 -66.5l-41 61q83 30 132 93.5t49 131.5v57h79v-57q0 -63 32 -121t93 -93q60 39 93 98.5t33 115.5v57h81z" />
<glyph unicode="&#xb315;" d="M611 519v-220h-78v507h78v-220h121v236h78v-552h-78v249h-121zM477 442l8 -66q-129 -27 -334 -27h-58v401h337v-67h-256v-267q188 2 303 26zM514 -8q102 0 160.5 27t58.5 75t-58 74.5t-161 26.5q-102 0 -160 -26.5t-58 -74.5t58 -75t160 -27zM514 260q140 0 220 -44 t80 -122q0 -79 -80 -123t-220 -44t-219.5 44t-79.5 123q0 78 79.5 122t219.5 44z" />
<glyph unicode="&#xb31c;" d="M173 669v-451q234 0 404 30l9 -68q-170 -31 -424 -31h-71v588h417v-68h-335zM883 531h-140v-197h140v-68h-140v-342h-82v899h82v-223h140v-69z" />
<glyph unicode="&#xb354;" d="M180 670v-455q232 0 385 29l10 -68q-163 -30 -408 -30h-69v592h408v-68h-326zM710 823h82v-899h-82v506h-257v68h257v325z" />
<glyph unicode="&#xb355;" d="M560 425l9 -66q-144 -30 -399 -30h-68v432h408v-67h-327v-298q235 0 377 29zM193 173v67h598v-315h-82v248h-516zM709 823h82v-537h-82v238h-251v67h251v232z" />
<glyph unicode="&#xb356;" d="M563 437l9 -66q-160 -29 -402 -29h-68v422h413v-67h-332v-288q229 0 380 28zM160 195v67h298v-336h-82v269h-216zM498 195v67h293v-336h-82v269h-211zM709 824h83v-518h-83v225h-251v67h251v226z" />
<glyph unicode="&#xb358;" d="M457 574h252v248h83v-654h-83v340h-252v66zM565 396l9 -67q-161 -29 -402 -29h-68v449h411v-67h-329v-315q229 0 379 29zM299 7h516v-67h-598v276h82v-209z" />
<glyph unicode="&#xb35b;" d="M458 604h251v219h82v-515h-82v230h-251v66zM559 445l11 -66q-147 -29 -398 -29h-68v419h409v-66h-327v-286q234 0 373 28zM290 4h520v-66h-602v323h587v-66h-505v-191z" />
<glyph unicode="&#xb35c;" d="M457 624h252v199h82v-473h-82v211h-252v63zM561 474l8 -64q-154 -29 -400 -29h-67v388h408v-65h-327v-258q230 0 378 28zM296 3h529v-65h-610v220h495v83h-497v65h578v-209h-495v-94z" />
<glyph unicode="&#xb35e;" d="M564 461l10 -65q-150 -28 -402 -28h-69v399h410v-65h-327v-269q239 0 378 28zM242 97v-95q143 0 227 15l8 -63q-90 -16 -267 -16h-47v218h208v82h-211v63h290v-204h-208zM576 239v-242h143v242h-143zM504 -64v365h287v-365h-287zM709 823h82v-483h-82v206h-253v63h253 v214z" />
<glyph unicode="&#xb35f;" d="M565 459l9 -64q-149 -28 -402 -28h-68v400h409v-65h-327v-270q238 0 379 27zM241 99v-97q143 0 227 15l8 -62q-89 -17 -267 -17h-48v221h209v83h-211v62h290v-205h-208zM716 3v131h-138v-131h138zM716 197v117h74v-375h-287v375h75v-117h138zM709 823h82v-475h-82v198 h-253v63h253v214z" />
<glyph unicode="&#xb364;" d="M560 444l9 -67q-153 -29 -399 -29h-68v418h408v-67h-327v-284q233 0 377 29zM289 193v-188h423v188h-423zM209 -61v319h583v-319h-583zM709 824h83v-521h-83v235h-251v66h251v220z" />
<glyph unicode="&#xb365;" d="M559 457l9 -67q-154 -29 -398 -29h-68v407h408v-67h-327v-273q232 0 376 29zM711 5v115h-418v-115h418zM711 184v111h80v-357h-579v357h81v-111h418zM709 823h82v-488h-82v208h-251v67h251v213z" />
<glyph unicode="&#xb367;" d="M457 590h252v234h83v-615h-83v314h-252v67zM560 430l9 -66q-150 -30 -399 -30h-68v430h407v-66h-326v-297q235 0 377 29zM545 276v-34q0 -90 87.5 -158.5t213.5 -89.5l-32 -64q-105 19 -188.5 70.5t-122.5 126.5q-40 -75 -123.5 -127t-186.5 -70l-33 64 q124 21 212.5 90.5t88.5 157.5v34h84z" />
<glyph unicode="&#xb369;" d="M458 596h251v227h83v-548h-83v254h-251v67zM560 432l9 -66q-158 -30 -399 -30h-68v424h408v-66h-327v-291q228 0 377 29zM496 -10q102 0 159.5 28t57.5 77t-57.5 77t-159.5 28t-159.5 -28t-57.5 -77t57.5 -77t159.5 -28zM496 264q139 0 219 -44.5t80 -124.5t-80 -124.5 t-219 -44.5t-219 44.5t-80 124.5t80 124.5t219 44.5z" />
<glyph unicode="&#xb36b;" d="M460 620h250v203h82v-512h-82v246h-250v63zM559 472l9 -65q-155 -28 -399 -28h-67v396h408v-65h-327v-266q230 0 376 28zM808 176h-263q4 -62 91.5 -116t202.5 -68l-27 -63q-102 14 -186 57.5t-124 104.5q-39 -61 -124 -104.5t-188 -57.5l-27 63q116 13 205 67t93 117 h-263v64h263v94h83v-94h264v-64z" />
<glyph unicode="&#xb36e;" d="M458 609h251v214h83v-499h-83v219h-251v66zM562 449l9 -67q-153 -29 -399 -29h-68v416h411v-67h-329v-282q232 0 376 29zM404 208v-204h185v204h-185zM670 4h140v-66h-622v66h135v204h-127v66h603v-66h-129v-204z" />
<glyph unicode="&#xb370;" d="M167 647v-437q191 2 301 25l8 -67q-121 -26 -332 -26h-58v571h337v-66h-256zM556 481v320h77v-830h-77v442h-193v68h193zM736 823h78v-897h-78v897z" />
<glyph unicode="&#xb371;" d="M380 589h182v214h77v-517h-77v236h-182v67zM477 425l9 -65q-120 -24 -332 -24h-58v417h340v-66h-259v-285q185 0 300 23zM209 169v67h604v-312h-82v245h-522zM734 822h79v-543h-79v543z" />
<glyph unicode="&#xb374;" d="M813 823v-664h-79v664h79zM380 573h180v231h78v-621h-78v324h-180v66zM477 403l9 -66q-135 -26 -332 -26h-58v432h340v-66h-259v-301q175 2 300 27zM309 14h530v-68h-612v288h82v-220z" />
<glyph unicode="&#xb378;" d="M813 822v-476h-79v476h79zM381 624h181v180h78v-450h-78v206h-181v64zM478 479l7 -66q-124 -23 -331 -23h-58v381h340v-66h-258v-249q181 0 300 23zM301 3h545v-65h-626v220h512v83h-514v65h595v-210h-512v-93z" />
<glyph unicode="&#xb380;" d="M383 604h179v199h77v-492h-77v226h-179v67zM478 441l7 -66q-121 -23 -331 -23h-58v409h340v-66h-259v-277q185 0 301 23zM306 196v-192h426v192h-426zM226 -62v323h587v-323h-587zM734 822h79v-519h-79v519z" />
<glyph unicode="&#xb381;" d="M380 613h182v190h77v-469h-77v212h-182v67zM478 455l7 -65q-126 -24 -331 -24h-58v399h340v-66h-259v-267q185 0 301 23zM732 3v117h-425v-117h425zM732 184v106h81v-353h-587v353h81v-106h425zM734 823h79v-495h-79v495z" />
<glyph unicode="&#xb383;" d="M813 822v-602h-79v602h79zM380 592h182v212h77v-506h-77v227h-182v67zM478 422l7 -66q-131 -23 -331 -23h-58v420h339v-66h-257v-288q175 0 300 23zM556 265v-35q0 -84 90.5 -150.5t213.5 -85.5l-31 -64q-104 18 -189.5 68t-124.5 122q-40 -72 -125 -122t-189 -68l-31 64 q123 19 213 85.5t90 150.5v35h83z" />
<glyph unicode="&#xb384;" d="M813 822v-527h-79v527h79zM383 596h179v207h77v-496h-77v222h-179v67zM478 429l7 -66q-130 -23 -331 -23h-58v414h340v-66h-259v-282q176 0 301 23zM700 268v-48q0 -72 48.5 -134.5t131.5 -91.5l-40 -60q-130 45 -181 170q-47 -127 -164 -178q-122 48 -167 174 q-25 -56 -71 -99.5t-107 -66.5l-40 60q82 31 131 95t49 131v48h79v-48q0 -64 31.5 -121.5t92.5 -92.5q60 39 93.5 99t33.5 115v48h80z" />
<glyph unicode="&#xb385;" d="M813 822v-544h-79v544h79zM381 592h181v211h77v-492h-77v215h-181v66zM478 427l9 -65q-125 -26 -333 -26h-58v415h343v-66h-262v-283q188 2 301 25zM516 -8q102 0 160.5 26.5t58.5 74.5t-58.5 75t-160.5 27t-161 -27t-59 -75t58.5 -74.5t161.5 -26.5zM516 259 q140 0 220.5 -44t80.5 -122t-80.5 -122t-220.5 -44t-220.5 44t-80.5 122t80.5 122t220.5 44z" />
<glyph unicode="&#xb38c;" d="M183 676v-476q232 0 385 29l10 -68q-164 -29 -408 -29h-69v610h411v-66h-329zM710 824h82v-899h-82v392h-250v69h250v133h-250v68h250v237z" />
<glyph unicode="&#xb390;" d="M474 645h235v177h83v-663h-83v248h-235v65h235v108h-235v65zM542 361l9 -65q-149 -28 -382 -28h-66v482h391v-67h-308v-349q211 0 356 27zM298 13h517v-67h-598v253h81v-186z" />
<glyph unicode="&#xb394;" d="M478 685h231v138h82v-481h-82v128h-231v63h231v88h-231v64zM535 456l8 -65q-137 -26 -377 -26h-64v409h389v-65h-308v-279q217 0 352 26zM296 1h527v-65h-608v219h495v85h-497v64h578v-210h-495v-93z" />
<glyph unicode="&#xb3a0;" d="M480 664h229v159h82v-530h-82v143h-229v65h229v98h-229v65zM535 419l9 -66q-147 -28 -378 -28h-64v437h390v-67h-309v-304q209 0 352 28zM695 268v-44q0 -73 48 -135.5t132 -90.5l-41 -61q-132 48 -180 170q-47 -127 -165 -178q-122 48 -166 175q-53 -118 -178 -167 l-41 61q82 30 131 94t49 132v44h79v-44q0 -64 31.5 -122t92.5 -94q61 39 94 99.5t33 116.5v44h81z" />
<glyph unicode="&#xb3a1;" d="M481 660h228v163h82v-560h-82v168h-228v65h228v99h-228v65zM537 414l9 -65q-145 -29 -377 -29h-65v442h390v-67h-308v-309q210 0 351 28zM495 -11q101 0 159.5 27.5t58.5 76.5t-58 77t-160 28q-101 0 -158.5 -28t-57.5 -77t57.5 -76.5t158.5 -27.5zM495 262 q140 0 220 -44.5t80 -124.5q0 -79 -80 -123t-220 -44q-138 0 -218 44t-80 123q0 80 79.5 124.5t218.5 44.5z" />
<glyph unicode="&#xb3a8;" d="M167 651v-443q189 2 297 25l9 -68q-125 -26 -329 -26h-58v579h339v-67h-258zM556 569v233h77v-830h-77v343h-185v66h185v122h-185v66h185zM736 824h78v-897h-78v897z" />
<glyph unicode="&#xb3ac;" d="M813 822v-665h-79v665h79zM395 636h165v168h78v-623h-78v229h-165v65h165v96h-165v65zM458 372l8 -66q-131 -25 -315 -25h-55v463h318v-66h-237v-331q160 2 281 25zM309 14h530v-68h-612v264h82v-196z" />
<glyph unicode="&#xb3c4;" d="M500 107h367v-68h-815v68h365v230h-261v414h608v-67h-526v-281h535v-66h-273v-230z" />
<glyph unicode="&#xb3c5;" d="M143 156v67h623v-304h-83v237h-540zM500 376h365v-66h-812v66h365v107h-263v304h609v-66h-527v-172h535v-66h-272v-107z" />
<glyph unicode="&#xb3c8;" d="M239 204v-191h540v-67h-622v258h82zM500 351h365v-66h-812v66h365v117h-263v309h609v-66h-527v-176h535v-67h-272v-117z" />
<glyph unicode="&#xb3cb;" d="M236 167v-163h540v-66h-622v295h613v-66h-531zM500 390h365v-67h-812v67h365v103h-260v294h603v-67h-521v-160h531v-67h-271v-103z" />
<glyph unicode="&#xb3cc;" d="M233 90v-90h554v-63h-634v213h526v79h-529v63h610v-202h-527zM500 433h364v-66h-812v66h366v85h-257v271h598v-66h-516v-139h525v-66h-268v-85z" />
<glyph unicode="&#xb3ce;" d="M218 90v-91q151 0 231 16l7 -63q-85 -16 -267 -16h-48v213h208v81h-210v61h287v-201h-208zM553 232v-235h148v235h-148zM483 -64v355h288v-355h-288zM501 431h363v-66h-811v66h365v88h-261v265h604v-65h-523v-135h531v-65h-268v-88z" />
<glyph unicode="&#xb3d0;" d="M219 91v-92q144 0 222 15l7 -61q-85 -15 -260 -15h-47v211h207v81h-209v61h287v-200h-207zM679 306v-68q0 -75 39.5 -143t113.5 -102l-46 -57q-104 50 -147 171q-43 -121 -148 -171l-47 57q75 36 115.5 103.5t40.5 141.5v68h79zM501 428h363v-66h-811v66h365v89h-261v267 h605v-65h-524v-136h531v-66h-268v-89z" />
<glyph unicode="&#xb3d4;" d="M233 170v-166h453v166h-453zM153 -62v297h613v-297h-613zM499 391h366v-67h-812v67h364v102h-262v295h609v-67h-527v-162h535v-66h-273v-102z" />
<glyph unicode="&#xb3d5;" d="M679 4v112h-440v-112h440zM679 181v98h82v-341h-603v341h81v-98h440zM499 402h366v-66h-812v66h364v103h-262v286h609v-67h-527v-153h535v-66h-273v-103z" />
<glyph unicode="&#xb3d7;" d="M502 253v-28q0 -86 86.5 -149.5t214.5 -81.5l-32 -64q-106 18 -189.5 65.5t-121.5 117.5q-39 -71 -122.5 -118t-190.5 -65l-31 64q128 18 215 81.5t87 149.5v28h84zM501 374h364v-67h-812v67h366v108h-264v303h610v-67h-528v-170h537v-66h-273v-108z" />
<glyph unicode="&#xb3d9;" d="M459 -10q106 0 164.5 25.5t58.5 72.5t-58.5 72.5t-164.5 25.5q-107 0 -166 -25.5t-59 -72.5t59 -72.5t166 -25.5zM459 250q144 0 225 -42.5t81 -119.5t-81 -119.5t-225 -42.5q-145 0 -226.5 42.5t-81.5 119.5t81.5 119.5t226.5 42.5zM500 380h365v-66h-812v66h365v104 h-263v298h609v-66h-527v-166h533v-66h-270v-104z" />
<glyph unicode="&#xb3db;" d="M757 168h-254q14 -64 98.5 -114t194.5 -64l-28 -60q-102 14 -185.5 57t-122.5 106q-39 -64 -122.5 -106.5t-189.5 -56.5l-27 60q115 15 197.5 63t95.5 115h-256v65h259v85h82v-85h258v-65zM501 422h365v-66h-812v66h364v95h-259v268h603v-66h-522v-136h529v-66h-268v-95z " />
<glyph unicode="&#xb3dd;" d="M236 80v-83h543v-61h-625v343h615v-61h-533v-78h512v-60h-512zM500 420h365v-66h-812v66h365v96h-261v271h609v-66h-527v-139h535v-66h-274v-96z" />
<glyph unicode="&#xb3e0;" d="M368 370v-178q150 7 237 20l6 -60q-200 -35 -556 -35l-12 69q157 0 243 3v181h-182v362h443v-66h-361v-229h368v-67h-186zM885 452v-69h-142v-457h-82v897h82v-371h142z" />
<glyph unicode="&#xb3e4;" d="M608 370l6 -60q-197 -36 -556 -38l-10 68q153 0 239 3v115h-173v304h417v-66h-333v-171h339v-67h-167v-111q153 10 238 23zM262 194v-181h513v-67h-595v248h82zM748 519h132v-68h-132v-307h-82v679h82v-304z" />
<glyph unicode="&#xb3e8;" d="M614 446l4 -57q-218 -34 -561 -34l-8 64q126 0 238 4v91h-168v262h416v-65h-335v-132h342v-65h-172v-88q143 7 244 20zM248 87v-87h536v-64h-616v212h503v81h-506v63h587v-205h-504zM752 605h128v-68h-128v-205h-82v491h82v-218z" />
<glyph unicode="&#xb3fc;" d="M323 370v-176q126 8 184 15l5 -60q-175 -30 -459 -30l-11 69q91 0 202 3v179h-156v361h380v-66h-299v-229h307v-66h-153zM732 823h79v-897h-79v457h-108v-410h-77v830h77v-353h108v373z" />
<glyph unicode="&#xb410;" d="M623 505v-229h-78v530h78v-234h107v252h78v-554h-78v235h-107zM502 389l6 -58q-161 -30 -449 -30l-11 66q129 0 204 3v108h-149v289h368v-66h-288v-156h293v-67h-147v-104q112 6 173 15zM693 232v-23q0 -69 48.5 -128.5t131.5 -83.5l-38 -62q-132 44 -182 161 q-46 -122 -166 -169q-121 47 -166 168q-50 -115 -180 -160l-39 62q83 26 131.5 85t48.5 127v23h79v-23q0 -59 32.5 -115t92.5 -90q61 35 94 91t33 114v23h80z" />
<glyph unicode="&#xb418;" d="M390 369v-175q161 7 253 19l7 -60q-222 -34 -581 -34l-10 69q162 0 249 3v178h-183v370h454v-68h-373v-235h377v-67h-193zM702 824h82v-900h-82v900z" />
<glyph unicode="&#xb41c;" d="M787 823v-671h-82v671h82zM633 357l6 -59q-232 -33 -570 -33l-12 67q136 0 253 4v127h-173v302h427v-67h-345v-169h351v-66h-178v-124q148 7 241 18zM289 13h528v-67h-610v250h82v-183z" />
<glyph unicode="&#xb420;" d="M789 822v-481h-82v481h82zM638 453l5 -58q-232 -33 -574 -33l-11 65q136 0 253 4v93h-172v261h421v-64h-337v-133h347v-64h-177v-90q154 7 245 19zM280 1h540v-65h-621v216h509v83h-511v64h592v-208h-509v-90z" />
<glyph unicode="&#xb428;" d="M636 409l6 -59q-213 -35 -573 -35l-10 66q162 0 252 3v106h-174v283h433v-67h-351v-150h357v-66h-183v-103q152 9 243 22zM282 168v-164h428v164h-428zM202 -62v295h587v-295h-587zM707 822h82v-544h-82v544z" />
<glyph unicode="&#xb429;" d="M634 424l5 -59q-205 -35 -571 -37l-12 66q163 0 253 4v96h-172v284h422v-67h-341v-150h350v-67h-177v-93q154 9 243 23zM708 4v104h-425v-104h425zM708 172v94h81v-328h-588v328h82v-94h425zM707 822h82v-516h-82v516z" />
<glyph unicode="&#xb42b;" d="M789 822v-634h-82v634h82zM635 393l5 -60q-228 -37 -572 -37l-11 67q143 0 255 5v111h-175v292h427v-67h-346v-159h352v-66h-176v-107q143 7 241 21zM532 243v-31q0 -81 86.5 -141t212.5 -78l-30 -64q-105 16 -188 61.5t-122 113.5q-39 -68 -122 -113.5t-188 -61.5 l-30 64q126 18 212 78t86 141v31h83z" />
<glyph unicode="&#xb434;" d="M366 330v-215h195v215h-195zM642 115h225v-68h-815v68h232v215h-128v417h608v-68h-526v-283h535v-66h-131v-215z" />
<glyph unicode="&#xb450;" d="M764 489v-66h-600v347h589v-67h-505v-214h516zM866 306v-67h-368v-309h-82v309h-363v67h813z" />
<glyph unicode="&#xb451;" d="M772 556v-66h-617v298h609v-66h-527v-166h535zM865 329h-365v-119h266v-286h-83v220h-540v66h275v119h-365v66h812v-66z" />
<glyph unicode="&#xb454;" d="M771 527v-67h-616v318h609v-67h-527v-184h534zM238 200v-187h540v-67h-622v254h82zM53 365h811v-67h-354v-177h-82v177h-375v67z" />
<glyph unicode="&#xb458;" d="M768 584v-66h-607v271h598v-66h-516v-139h525zM864 380h-364v-89h260v-201h-527v-90h554v-63h-634v213h526v79h-529v62h268v89h-366v66h812v-66z" />
<glyph unicode="&#xb460;" d="M772 559v-66h-617v295h609v-67h-527v-162h535zM686 5v165h-453v-165h453zM865 341h-365v-105h266v-297h-613v297h265v105h-364v67h811v-67z" />
<glyph unicode="&#xb461;" d="M772 571v-66h-617v286h609v-67h-527v-153h535zM679 4v108h-440v-108h440zM679 176v104h82v-342h-603v342h81v-104h440zM53 420h812v-67h-365v-129h-82v129h-365v67z" />
<glyph unicode="&#xb463;" d="M772 562v-66h-616v293h608v-66h-526v-161h534zM500 210v-28q0 -73 87 -125t215 -65l-27 -63q-109 12 -194 52.5t-123 103.5q-40 -63 -125.5 -103.5t-193.5 -52.5l-27 63q128 13 215.5 65t87.5 125v28h85zM52 409h815v-66h-368v-96h-83v96h-364v66z" />
<glyph unicode="&#xb465;" d="M770 552v-66h-615v296h609v-66h-527v-164h533zM682 89q0 46 -59 72t-164 26q-107 0 -166 -26t-59 -72q0 -47 59 -73t166 -26q105 0 164 26t59 73zM865 336h-365v-86q125 -6 195 -48t70 -113q0 -78 -81 -120t-225 -42q-145 0 -226.5 42t-81.5 120q0 71 70 113t197 48v86 h-365v67h812v-67z" />
<glyph unicode="&#xb46c;" d="M572 525v-68h-443v317h432v-67h-351v-182h362zM640 374l6 -61q-125 -16 -267 -22v-338h-81v334q-112 -4 -239 -4l-12 69q393 2 593 22zM709 822h82v-897h-82v220h-203v65h203v612z" />
<glyph unicode="&#xb480;" d="M521 367h185v456h82v-568h-82v54h-185v58zM544 601v-64h-406v262h403v-64h-321v-134h324zM287 263v142q-81 -3 -229 -3l-10 64q378 0 575 26l5 -57q-129 -20 -259 -26v-146h-82zM692 226v-17q0 -67 48.5 -126.5t131.5 -85.5l-40 -61q-129 45 -180 162q-46 -123 -166 -169 q-120 45 -166 167q-51 -116 -180 -160l-38 61q82 26 130.5 85.5t48.5 126.5v17h79v-17q0 -58 32.5 -113.5t92.5 -89.5q61 35 94 90.5t33 112.5v17h80z" />
<glyph unicode="&#xb488;" d="M465 521v-67h-363v296h361v-67h-282v-162h284zM507 385l6 -60q-99 -16 -199 -22v-304h-78v299q-101 -6 -184 -6l-11 69q299 2 466 24zM565 234v569h77v-832h-77v199h-167v64h167zM734 823h79v-897h-79v897z" />
<glyph unicode="&#xb49d;" d="M808 823v-594h-78v594h78zM410 366h158v441h77v-548h-77v49h-158v58zM477 594v-62h-358v246h357v-63h-278v-121h279zM249 248v151q-89 -5 -191 -5l-10 65q304 0 469 26l6 -58q-94 -17 -195 -23v-156h-79zM506 -11q110 0 169 23t59 66q0 42 -59.5 65t-169.5 23 q-109 0 -168.5 -23t-59.5 -65q0 -43 59.5 -66t169.5 -23zM505 228q150 0 232 -38.5t82 -111.5q0 -74 -81.5 -112.5t-232.5 -38.5q-149 0 -231 38.5t-82 112.5q0 73 82 111.5t231 38.5z" />
<glyph unicode="&#xb4a4;" d="M577 515v-66h-444v324h433v-67h-351v-191h362zM645 358l4 -61q-112 -17 -259 -24v-320h-82v316q-116 -4 -249 -4l-11 69q402 2 597 24zM707 822h82v-897h-82v897z" />
<glyph unicode="&#xb4a8;" d="M783 823v-681h-82v681h82zM568 539v-67h-425v300h418v-67h-336v-166h343zM314 172v147q-117 -4 -248 -4l-11 68q373 0 583 23l5 -61q-108 -14 -247 -22v-151h-82zM262 12h547v-66h-629v257h82v-191z" />
<glyph unicode="&#xb4ac;" d="M783 823v-488h-82v488h82zM559 599v-64h-413v264h408v-64h-326v-136h331zM274 0h542v-64h-623v216h509v85h-511v62h116v103q-113 -4 -240 -4l-10 64q383 0 583 26l5 -57q-118 -19 -256 -25v-107h394v-207h-509v-92z" />
<glyph unicode="&#xb4b5;" d="M562 579v-66h-417v279h412v-67h-330v-146h335zM312 250v123q-115 -4 -245 -4l-11 67q371 0 583 20l5 -59q-106 -13 -250 -20v-127h-82zM702 3v98h-432v-98h432zM702 164v94h81v-320h-594v320h81v-94h432zM701 824h82v-526h-82v526z" />
<glyph unicode="&#xb4b7;" d="M783 823v-647h-82v647h82zM567 564v-66h-424v281h422v-67h-340v-148h342zM294 190v154q-120 -3 -226 -3l-11 67q370 0 582 21l5 -59q-96 -13 -268 -23v-157h-82zM552 249v-39q0 -81 86.5 -141t212.5 -77l-32 -62q-105 16 -187.5 61t-120.5 112q-39 -68 -121.5 -113 t-188.5 -61l-30 63q126 17 212 77t86 141v39h83z" />
<glyph unicode="&#xb4b9;" d="M783 823v-570h-82v570h82zM563 562v-66h-418v283h413v-66h-331v-151h336zM490 -9q102 0 159.5 25.5t57.5 71.5q0 45 -58 70.5t-159 25.5t-159 -25.5t-58 -70.5q0 -46 57.5 -71.5t159.5 -25.5zM387 353v-113q43 7 103 7q140 0 219.5 -42t79.5 -117q0 -76 -79.5 -118 t-219.5 -42t-219.5 42t-79.5 118q0 92 115 132v129q-112 -4 -238 -4l-11 69q371 0 583 21l5 -61q-127 -15 -258 -21z" />
<glyph unicode="&#xb4c0;" d="M764 495v-66h-600v346h588v-67h-504v-213h516zM865 308v-67h-210v-316h-82v316h-228v-316h-81v316h-211v67h812z" />
<glyph unicode="&#xb4c4;" d="M771 530v-66h-616v314h609v-67h-527v-181h534zM237 192v-179h544v-67h-626v246h82zM53 370h811v-67h-207v-183h-81v183h-159v-182h-81v182h-283v67z" />
<glyph unicode="&#xb4c8;" d="M768 588v-66h-607v269h598v-66h-516v-137h525zM567 291v92h-212v-92h212zM864 383h-215v-92h111v-201h-527v-90h554v-63h-634v213h526v79h-529v62h124v92h-222v66h812v-66z" />
<glyph unicode="&#xb4d0;" d="M772 562v-66h-617v292h609v-66h-527v-160h535zM565 236v108h-208v-108h208zM686 5v165h-453v-165h453zM865 344h-219v-108h120v-297h-613v297h123v108h-222v66h811v-66z" />
<glyph unicode="&#xb4d5;" d="M769 557v-66h-614v293h609v-66h-527v-161h532zM578 241v95h-237v-94q53 9 117 9q69 0 120 -10zM682 89q0 46 -59.5 72t-164.5 26q-106 0 -165 -26t-59 -72q0 -47 59 -73t165 -26q105 0 164.5 26t59.5 73zM865 336h-206v-117q106 -41 106 -130q0 -78 -81 -120t-226 -42 t-226 42t-81 120q0 90 108 131v116h-205v67h811v-67z" />
<glyph unicode="&#xb4dc;" d="M772 393v-67h-616v415h607v-68h-526v-280h535zM52 115h814v-68h-814v68z" />
<glyph unicode="&#xb4dd;" d="M772 552v-66h-617v303h609v-66h-527v-171h535zM143 146v66h623v-291h-83v225h-540zM53 386h812v-66h-812v66z" />
<glyph unicode="&#xb4e0;" d="M771 535v-66h-616v316h608v-67h-526v-183h534zM239 209v-195h540v-67h-622v262h82zM53 370h811v-66h-811v66z" />
<glyph unicode="&#xb4e3;" d="M770 564v-67h-612v297h603v-66h-521v-164h530zM236 171v-166h539v-66h-621v298h612v-66h-530zM53 401h811v-67h-811v67z" />
<glyph unicode="&#xb4e4;" d="M768 587v-66h-607v272h598v-66h-516v-140h525zM233 93v-92h554v-64h-634v217h526v86h-529v64h610v-211h-527zM53 449h812v-67h-812v67z" />
<glyph unicode="&#xb4e6;" d="M769 582v-66h-612v281h604v-66h-522v-149h530zM218 92v-93q150 0 231 15l7 -63q-80 -15 -267 -15h-48v214h208v85h-210v61h287v-204h-208zM553 236v-239h148v239h-148zM483 -64v360h288v-360h-288zM54 439h810v-66h-810v66z" />
<glyph unicode="&#xb4ec;" d="M772 561v-66h-617v299h609v-67h-527v-166h535zM233 172v-165h453v165h-453zM153 -59v297h613v-297h-613zM54 404h811v-67h-811v67z" />
<glyph unicode="&#xb4ed;" d="M772 574v-66h-617v286h609v-66h-527v-154h535zM679 6v112h-440v-112h440zM679 183v98h82v-341h-603v341h81v-98h440zM53 418h812v-67h-812v67z" />
<glyph unicode="&#xb4ef;" d="M774 548v-66h-619v309h610v-66h-528v-177h537zM502 255v-29q0 -86 86.5 -149t214.5 -82l-32 -65q-105 18 -188.5 65.5t-122.5 118.5q-40 -71 -123.5 -118.5t-189.5 -65.5l-31 65q128 19 215 82t87 149v29h84zM53 390h812v-67h-812v67z" />
<glyph unicode="&#xb4f1;" d="M770 548v-66h-615v305h609v-66h-527v-173h533zM458 -9q106 0 165 25.5t59 72.5t-59 72.5t-165 25.5t-165 -25.5t-59 -72.5t59 -72.5t165 -25.5zM458 251q144 0 225.5 -42.5t81.5 -119.5t-81.5 -119.5t-225.5 -42.5t-225.5 42.5t-81.5 119.5t81.5 119.5t225.5 42.5z M53 396h812v-68h-812v68z" />
<glyph unicode="&#xb4f8;" d="M580 447v-67h-452v357h440v-67h-358v-223h370zM67 139l-11 68q391 2 590 25l5 -60q-230 -35 -584 -33zM702 823h82v-898h-82v898z" />
<glyph unicode="&#xb514;" d="M192 669v-452q260 0 418 30l9 -69q-171 -31 -436 -31h-72v591h424v-69h-343zM705 823h82v-899h-82v899z" />
<glyph unicode="&#xb515;" d="M619 445l7 -66q-162 -31 -445 -31h-74v402h422v-66h-340v-269q278 0 430 30zM189 173v67h600v-315h-82v248h-518zM707 822h82v-533h-82v533z" />
<glyph unicode="&#xb518;" d="M788 822v-651h-82v651h82zM595 419l9 -67q-164 -31 -426 -31h-71v430h415v-67h-334v-296q251 0 407 31zM285 13h531v-67h-613v279h82v-212z" />
<glyph unicode="&#xb51b;" d="M789 823v-513h-82v513h82zM617 469l8 -67q-162 -32 -444 -32h-74v390h422v-66h-340v-257q270 0 428 32zM291 6h522v-67h-604v325h586v-67h-504v-191z" />
<glyph unicode="&#xb51c;" d="M788 822v-455h-82v455h82zM616 508l9 -64q-169 -33 -444 -33h-74v359h423v-65h-341v-229q269 0 427 32zM290 -2h529v-65h-609v229h497v95h-500v64h581v-220h-498v-103z" />
<glyph unicode="&#xb524;" d="M617 470l8 -67q-169 -32 -444 -32h-74v387h422v-67h-340v-253q270 0 428 32zM289 194v-189h420v189h-420zM209 -61v321h580v-321h-580zM707 823h82v-517h-82v517z" />
<glyph unicode="&#xb525;" d="M617 481l8 -67q-169 -32 -444 -32h-74v384h422v-66h-340v-251q270 0 428 32zM708 5v114h-416v-114h416zM708 184v113h81v-359h-578v359h81v-113h416zM707 824h82v-483h-82v483z" />
<glyph unicode="&#xb527;" d="M789 823v-606h-82v606h82zM616 443l8 -66q-171 -33 -443 -33h-74v404h421v-67h-339v-270q267 0 427 32zM540 283v-32q0 -94 86.5 -164.5t211.5 -93.5l-33 -64q-104 21 -186 74t-121 131q-38 -78 -121.5 -131t-188.5 -74l-33 64q126 22 213.5 92.5t87.5 165.5v32h84z" />
<glyph unicode="&#xb528;" d="M789 823v-522h-82v522h82zM618 466l8 -67q-173 -33 -445 -33h-74v393h425v-67h-343v-259q263 0 429 33zM689 279v-58q0 -72 48.5 -133.5t132.5 -90.5l-41 -61q-130 46 -181 170q-47 -127 -165 -178q-122 48 -167 174q-25 -56 -71 -99.5t-107 -66.5l-41 61q82 30 131 93.5 t49 130.5v58h79v-58q0 -63 32 -120.5t93 -92.5q61 38 94.5 97.5t33.5 115.5v58h80z" />
<glyph unicode="&#xb529;" d="M789 823v-552h-82v552h82zM617 458l8 -67q-162 -32 -444 -32h-74v393h422v-66h-340v-260q270 0 428 32zM491 -9q102 0 160.5 28.5t58.5 78.5t-58.5 78.5t-160.5 28.5t-161 -28.5t-59 -78.5t59 -78.5t161 -28.5zM491 270q140 0 220.5 -45.5t80.5 -126.5t-80.5 -126.5 t-220.5 -45.5t-220.5 45.5t-80.5 126.5t80.5 126.5t220.5 45.5z" />
<glyph unicode="&#xb52a;" d="M789 822v-518h-82v518h82zM617 473l8 -67q-170 -32 -444 -32h-74v386h425v-67h-343v-251q271 0 428 31zM799 193h-252q8 -71 91 -127.5t196 -73.5l-30 -63q-101 17 -182 63t-119 113q-37 -67 -117.5 -113t-181.5 -63l-30 63q113 18 195 74t91 127h-249v67h588v-67z" />
<glyph unicode="&#xb530;" d="M161 662v-432q75 2 154 18l9 -68q-89 -19 -204 -19h-40v568h226v-67h-145zM437 662v-433q106 2 184 21l9 -68q-84 -21 -230 -21h-44v568h238v-67h-157zM887 471v-69h-130v-476h-82v898h82v-353h130z" />
<glyph unicode="&#xb531;" d="M629 442l9 -68q-82 -19 -232 -19h-43v396h236v-67h-158v-261q115 2 188 19zM325 442l8 -68q-88 -19 -208 -19h-39v396h223v-67h-145v-261q87 2 161 19zM173 178v66h593v-319h-82v253h-511zM882 583v-69h-116v-229h-82v538h82v-240h116z" />
<glyph unicode="&#xb534;" d="M629 411l9 -68q-82 -19 -232 -19h-43v414h236v-66h-158v-280q115 2 188 19zM325 408l8 -68q-83 -18 -208 -18h-39v416h223v-66h-145v-283q91 4 161 19zM274 225v-212h527v-67h-609v279h82zM766 555h117v-68h-117v-318h-82v654h82v-268z" />
<glyph unicode="&#xb538;" d="M630 497l8 -66q-83 -19 -232 -19h-43v354h236v-66h-158v-222q115 2 189 19zM325 495l8 -67q-84 -18 -208 -18h-39v356h226v-66h-148v-224q87 2 161 19zM263 101v-98h536v-65h-617v224h503v92h-505v64h586v-217h-503zM766 627h117v-67h-117v-201h-82v465h82v-197z" />
<glyph unicode="&#xb540;" d="M629 449l9 -68q-82 -19 -232 -19h-43v395h236v-66h-158v-261q115 2 188 19zM325 449l8 -68q-88 -19 -208 -19h-39v395h223v-66h-145v-261q91 4 161 19zM267 193v-189h419v189h-419zM187 -62v320h579v-320h-579zM882 601v-68h-116v-228h-82v517h82v-221h116z" />
<glyph unicode="&#xb541;" d="M631 463l8 -68q-82 -19 -233 -19h-43v386h236v-66h-158v-252q116 2 190 19zM329 461l9 -68q-96 -20 -212 -20h-40v389h223v-66h-145v-255q96 4 165 20zM684 5v114h-418v-114h418zM684 185v113h81v-360h-580v360h81v-113h418zM882 615v-68h-117v-210h-82v486h82v-208h117z " />
<glyph unicode="&#xb543;" d="M629 430l9 -68q-87 -20 -232 -20h-43v403h236v-66h-158v-269q111 2 188 20zM325 428l8 -68q-87 -20 -208 -20h-39v405h223v-66h-145v-270q87 2 161 19zM526 276v-29q0 -94 88 -163.5t213 -90.5l-32 -64q-105 19 -188.5 71.5t-122.5 128.5q-40 -76 -124 -128.5t-188 -71.5 l-34 64q126 21 214.5 90.5t88.5 163.5v29h85zM766 571h117v-69h-117v-289h-82v610h82v-252z" />
<glyph unicode="&#xb544;" d="M629 449l9 -68q-82 -19 -232 -19h-43v395h236v-66h-158v-261q115 2 188 19zM324 448l9 -69q-89 -19 -208 -19h-39v397h223v-66h-145v-262q87 2 160 19zM687 278v-53q0 -73 48 -135.5t131 -91.5l-41 -61q-130 49 -179 171q-47 -127 -165 -178q-121 48 -167 175 q-53 -119 -176 -168l-41 61q82 31 130.5 95t48.5 132v53h79v-53q0 -63 32 -121.5t92 -94.5q61 39 94 99.5t33 116.5v53h81zM766 598h116v-68h-116v-222h-82v514h82v-224z" />
<glyph unicode="&#xb545;" d="M629 443l9 -68q-82 -19 -232 -19h-43v395h236v-67h-158v-260q115 2 188 19zM325 441l8 -69q-88 -19 -208 -19h-39v398h223v-67h-145v-262q87 2 161 19zM475 -9q101 0 158.5 28.5t57.5 78.5q0 49 -57.5 77.5t-158.5 28.5t-159 -28.5t-58 -77.5q0 -50 58 -78.5t159 -28.5z M475 268q138 0 218 -45t80 -125q0 -81 -79.5 -126t-218.5 -45q-140 0 -219.5 45t-79.5 126t79.5 125.5t219.5 44.5zM766 587h116v-68h-116v-236h-82v539h82v-235z" />
<glyph unicode="&#xb54b;" d="M630 515l8 -66q-83 -19 -232 -19h-43v339h236v-66h-158v-208q110 2 189 20zM324 512l9 -66q-90 -19 -208 -19h-39v342h223v-66h-145v-210q91 4 160 19zM477 -15q79 0 123.5 18.5t44.5 52.5t-44.5 52.5t-123.5 18.5t-124.5 -18.5t-45.5 -52.5t45.5 -52.5t124.5 -18.5z M477 187q117 0 183.5 -34.5t66.5 -96.5t-66.5 -96.5t-183.5 -34.5q-118 0 -184.5 34t-66.5 97q0 62 66.5 96.5t184.5 34.5zM519 382v-87h274v-63h-633v63h277v87h82zM766 631h116v-68h-116v-207h-82v467h82v-192z" />
<glyph unicode="&#xb54c;" d="M155 643v-414q63 2 122 16l8 -68q-74 -17 -169 -17h-36v550h192v-67h-117zM385 643v-415q83 4 142 20l7 -68q-78 -20 -187 -20h-37v550h198v-67h-123zM748 823h78v-896h-78v463h-105v-419h-76v832h76v-346h105v366z" />
<glyph unicode="&#xb54d;" d="M522 427l9 -67q-75 -17 -182 -17h-36v407h195v-66h-120v-273q68 2 134 16zM277 426l8 -66q-73 -17 -169 -17h-35v407h187v-66h-112v-273q66 2 121 15zM196 175v66h626v-313h-82v247h-544zM745 822h77v-536h-77v239h-101v-231h-76v511h76v-213h101v230z" />
<glyph unicode="&#xb550;" d="M644 495v-309h-76v619h76v-243h101v260h77v-665h-77v338h-101zM522 407l9 -67q-75 -17 -182 -17h-36v413h195v-66h-120v-279q68 2 134 16zM277 406l8 -66q-73 -17 -169 -17h-35v413h187v-66h-112v-279q66 2 121 15zM302 13h545v-67h-627v287h82v-220z" />
<glyph unicode="&#xb554;" d="M644 555v-189h-76v439h76v-183h101v200h77v-463h-77v196h-101zM522 482l9 -66q-76 -17 -182 -17h-36v370h195v-65h-120v-239q70 2 134 17zM277 481l8 -65q-73 -17 -170 -17h-34v370h187v-65h-112v-239q63 2 121 16zM300 3h556v-65h-637v223h523v89h-525v64h605v-214h-522 v-97z" />
<glyph unicode="&#xb55c;" d="M522 451l9 -67q-75 -18 -182 -18h-36v391h195v-66h-120v-257q70 2 134 17zM277 450l8 -67q-73 -17 -169 -17h-35v391h187v-66h-112v-257q62 2 121 16zM298 196v-191h444v191h-444zM218 -61v322h604v-322h-604zM745 822h77v-518h-77v228h-101v-223h-76v496h76v-207h101 v224z" />
<glyph unicode="&#xb55d;" d="M522 462l9 -67q-79 -18 -182 -18h-36v384h195v-66h-120v-250q70 2 134 17zM277 461l8 -67q-78 -17 -169 -17h-35v384h187v-66h-112v-250q62 2 121 16zM741 4v116h-438v-116h438zM741 184v108h81v-354h-601v354h82v-108h438zM745 822h77v-489h-77v212h-101v-207h-76v467 h76v-193h101v210z" />
<glyph unicode="&#xb55f;" d="M644 515v-225h-76v515h76v-223h101v240h77v-607h-77v300h-101zM522 426l9 -67q-75 -18 -182 -18h-36v406h195v-67h-120v-271q70 2 134 17zM277 425l8 -67q-73 -17 -169 -17h-35v406h187v-67h-112v-271q62 2 121 16zM556 263v-34q0 -84 90.5 -150.5t213.5 -85.5l-30 -63 q-104 17 -189.5 66t-125.5 121q-41 -72 -126 -121t-189 -66l-31 63q123 19 213.5 85.5t90.5 150.5v34h83z" />
<glyph unicode="&#xb560;" d="M644 532v-220h-76v493h76v-206h101v223h77v-519h-77v229h-101zM522 441l9 -67q-79 -18 -182 -18h-36v398h195v-66h-120v-264q70 2 134 17zM277 440l8 -66q-77 -18 -169 -18h-35v398h187v-66h-112v-264q62 2 121 16zM706 269v-47q0 -72 48 -134.5t131 -90.5l-40 -62 q-132 48 -180 169q-48 -126 -165 -176q-121 46 -167 173q-53 -118 -178 -166l-40 62q82 30 131 93.5t49 131.5v47h79v-47q0 -63 32 -121.5t93 -93.5q60 39 93.5 99t33.5 116v47h80z" />
<glyph unicode="&#xb561;" d="M644 520v-217h-76v502h76v-217h101v234h77v-546h-77v244h-101zM522 442l9 -67q-79 -18 -182 -18h-36v392h195v-66h-121v-259q75 4 135 18zM281 439l9 -67q-76 -17 -174 -17h-35v394h191v-66h-116v-260q65 2 125 16zM514 -9q108 0 169 28t61 77t-61 76t-169 27 q-106 0 -167 -27t-61 -76t61 -77t167 -28zM514 264q146 0 229.5 -44t83.5 -124t-83 -124.5t-230 -44.5q-145 0 -228 44.5t-83 124.5t83 124t228 44z" />
<glyph unicode="&#xb5a0;" d="M161 666v-441q82 4 145 18l9 -68q-80 -18 -196 -18h-39v575h221v-66h-140zM431 666v-441q118 2 198 21l8 -68q-90 -21 -242 -21h-45v575h243v-66h-162zM719 822h82v-895h-82v501h-171v67h171v327z" />
<glyph unicode="&#xb5a1;" d="M633 430l8 -67q-89 -20 -244 -20h-46v411h249v-66h-168v-278q123 2 201 20zM311 429l8 -68q-87 -18 -202 -18h-40v411h226v-66h-145v-277q76 2 153 18zM187 177v67h614v-319h-82v252h-532zM718 822h83v-536h-83v240h-163v67h163v229z" />
<glyph unicode="&#xb5a4;" d="M557 576h161v246h83v-653h-83v340h-161v67zM633 401l8 -67q-89 -20 -244 -20h-46v434h249v-66h-168v-301q123 2 201 20zM314 400l7 -67q-81 -19 -204 -19h-40v434h226v-66h-145v-301q88 4 156 19zM283 13h540v-67h-622v278h82v-211z" />
<glyph unicode="&#xb5a8;" d="M553 626h165v196h83v-463h-83v204h-165v63zM634 482l7 -64q-93 -21 -245 -21h-45v373h249v-65h-168v-243q118 2 202 20zM313 481l7 -65q-87 -19 -203 -19h-40v373h224v-65h-143v-242q82 2 155 18zM283 3h550v-65h-631v223h517v89h-520v65h602v-215h-518v-97z" />
<glyph unicode="&#xb5aa;" d="M634 478l7 -64q-89 -20 -245 -20h-45v375h249v-65h-168v-245q124 2 202 19zM313 477l7 -65q-87 -18 -203 -18h-40v375h224v-65h-143v-245q92 4 155 18zM249 103v-101q144 0 228 15l9 -63q-91 -16 -268 -16h-48v226h209v85h-211v62h290v-208h-209zM585 250v-250h144v250 h-144zM514 -62v373h287v-373h-287zM718 822h83v-466h-83v205h-165v63h165v198z" />
<glyph unicode="&#xb5ab;" d="M634 479l7 -65q-94 -20 -245 -20h-45v375h249v-65h-168v-245q120 2 202 20zM313 478l7 -65q-87 -19 -203 -19h-40v375h224v-65h-143v-244q82 2 155 18zM249 98v-97q137 0 227 16l9 -63q-91 -16 -268 -16h-47v221h209v82h-212v63h291v-206h-209zM726 3v131h-138v-131h138z M726 196v117h75v-375h-288v375h75v-117h138zM718 822h83v-466h-83v205h-165v63h165v198z" />
<glyph unicode="&#xb5b0;" d="M633 441l8 -66q-89 -20 -244 -20h-46v404h249v-66h-168v-271q122 2 201 19zM313 438l7 -67q-87 -19 -203 -19h-40v407h224v-66h-143v-273q82 2 155 18zM285 196v-191h435v191h-435zM205 -61v323h595v-323h-595zM718 822h83v-514h-83v226h-163v66h163v222z" />
<glyph unicode="&#xb5b1;" d="M633 454l8 -66q-89 -20 -244 -20h-46v399h249v-66h-168v-266q123 2 201 19zM311 451l8 -68q-87 -18 -202 -18h-40v402h226v-66h-145v-268q74 2 153 18zM720 5v115h-432v-115h432zM720 185v112h81v-359h-594v359h81v-112h432zM718 823h83v-486h-83v208h-163v67h163v211z " />
<glyph unicode="&#xb5b3;" d="M555 589h163v233h83v-615h-83v315h-163v67zM633 426l8 -67q-89 -20 -244 -20h-46v416h249v-66h-168v-283q123 2 201 20zM313 425l7 -67q-87 -19 -203 -19h-40v416h226v-66h-145v-282q82 2 155 18zM539 276v-39q0 -89 88.5 -156.5t214.5 -87.5l-31 -64q-106 19 -190.5 70 t-123.5 125q-40 -74 -124.5 -125t-189.5 -70l-32 64q125 20 214.5 88.5t89.5 155.5v39h84z" />
<glyph unicode="&#xb5b4;" d="M555 596h163v226h83v-514h-83v221h-163v67zM633 434l8 -66q-89 -20 -244 -20h-46v410h249v-67h-168v-276q122 2 201 19zM313 431l7 -67q-87 -19 -203 -19h-40v413h226v-67h-145v-278q82 2 155 18zM691 268v-44q0 -73 48 -135.5t131 -91.5l-40 -60q-132 47 -180 170 q-47 -127 -165 -178q-122 48 -166 175q-25 -56 -70.5 -100t-106.5 -67l-42 60q82 31 131 95.5t49 131.5v44h79v-44q0 -63 32 -121.5t92 -94.5q61 39 94.5 99.5t33.5 116.5v44h80z" />
<glyph unicode="&#xb5b5;" d="M555 596h163v226h82v-546h-82v253h-163v67zM633 435l8 -67q-94 -20 -244 -20h-46v409h249v-66h-168v-276q117 2 201 20zM313 432l8 -68q-87 -18 -204 -18h-40v411h225v-66h-144v-277q83 2 155 18zM502 -9q102 0 161 27t59 75t-59 75t-161 27q-103 0 -161.5 -27t-58.5 -75 t58.5 -75t161.5 -27zM502 260q141 0 222 -44t81 -123q0 -78 -81 -122t-222 -44q-142 0 -222 44t-80 122q0 79 80 123t222 44z" />
<glyph unicode="&#xb5bb;" d="M558 636h160v186h82v-476h-82v227h-160v63zM633 495l7 -64q-93 -21 -245 -21h-44v369h248v-65h-167v-239q120 2 201 20zM313 494l7 -65q-87 -19 -203 -19h-40v369h224v-65h-143v-238q82 2 155 18zM496 -15q79 0 123.5 18t44.5 51q0 34 -44.5 52.5t-123.5 18.5 q-80 0 -124 -18.5t-44 -52.5q0 -33 44 -51t124 -18zM496 183q121 0 187 -33t66 -96q0 -62 -66 -95t-187 -33t-187 33t-66 95q0 63 66 96t187 33zM538 288h278v-63h-639v63h279v85h82v-85z" />
<glyph unicode="&#xb5bc;" d="M155 645v-416q60 2 118 15l7 -68q-72 -17 -165 -17h-35v552h182v-66h-107zM378 645v-415q82 4 150 21l8 -68q-80 -21 -195 -21h-37v549h204v-66h-130zM583 486v316h75v-829h-75v446h-131v67h131zM748 823h78v-896h-78v896z" />
<glyph unicode="&#xb5bd;" d="M462 597h122v208h76v-517h-76v242h-122v67zM532 428l9 -66q-85 -20 -199 -20h-38v414h201v-67h-126v-280q82 2 153 19zM269 425l7 -67q-70 -16 -161 -16h-34v414h181v-67h-106v-279q56 2 113 15zM201 176v66h621v-316h-82v250h-539zM745 822h77v-540h-77v540z" />
<glyph unicode="&#xb5c0;" d="M822 823v-672h-77v672h77zM463 570h121v233h76v-627h-76v327h-121v67zM532 397l9 -66q-85 -20 -199 -20h-38v430h201v-67h-126v-296q82 2 153 19zM269 394l7 -66q-70 -17 -161 -17h-34v430h181v-67h-106v-295q56 2 113 15zM303 13h546v-67h-628v284h82v-217z" />
<glyph unicode="&#xb5c4;" d="M822 822v-474h-78v474h78zM465 622h120v181h75v-446h-75v201h-120v64zM528 476l10 -66q-84 -19 -199 -19h-38v375h206v-65h-131v-244q82 2 152 19zM267 473l7 -66q-66 -16 -160 -16h-33v375h181v-65h-106v-243q56 2 111 15zM299 1h553v-65h-634v222h523v87h-525v64h606 v-212h-523v-96z" />
<glyph unicode="&#xb5cc;" d="M462 599h122v204h76v-490h-76v220h-122v66zM532 442l9 -66q-90 -20 -199 -20h-38v405h201v-66h-126v-272q86 4 153 19zM269 439l7 -66q-70 -17 -161 -17h-34v405h181v-66h-106v-271q56 2 113 15zM298 195v-190h444v190h-444zM218 -61v321h604v-321h-604zM745 822h77v-521 h-77v521z" />
<glyph unicode="&#xb5cd;" d="M463 613h121v190h76v-467h-76v210h-121v67zM532 458l9 -66q-90 -20 -199 -20h-38v395h201v-67h-126v-261q86 4 153 19zM269 455l7 -66q-70 -17 -161 -17h-34v395h181v-67h-106v-260q56 2 113 15zM741 5v115h-438v-115h438zM741 184v107h81v-353h-601v353h82v-107h438z M745 822h77v-493h-77v493z" />
<glyph unicode="&#xb5cf;" d="M822 822v-606h-77v606h77zM462 589h122v214h76v-504h-76v223h-122v67zM531 422l10 -67q-88 -21 -199 -21h-38v415h201v-66h-126v-282q81 4 152 21zM269 417l7 -67q-70 -17 -161 -17h-34v416h181v-66h-106v-282q61 4 113 16zM556 265v-35q0 -84 90.5 -150.5t213.5 -85.5 l-30 -64q-104 18 -189.5 67.5t-125.5 121.5q-41 -72 -126 -121.5t-189 -67.5l-31 64q123 19 213.5 85.5t90.5 150.5v35h83z" />
<glyph unicode="&#xb5d0;" d="M822 822v-519h-77v519h77zM462 598h122v205h76v-488h-76v216h-122v67zM532 432l9 -66q-85 -20 -199 -20h-38v411h201v-66h-126v-278q82 2 153 19zM269 429l7 -66q-70 -17 -161 -17h-34v411h181v-66h-106v-277q56 2 113 15zM706 268v-47q0 -72 48 -134t131 -91l-40 -61 q-132 48 -180 169q-48 -126 -165 -177q-122 48 -167 174q-53 -118 -178 -166l-40 61q82 31 131 94.5t49 130.5v47h79v-47q0 -63 32 -121t93 -93q60 39 93.5 98.5t33.5 115.5v47h80z" />
<glyph unicode="&#xb5d1;" d="M822 822v-556h-77v556h77zM462 594h122v209h76v-504h-76v228h-122v67zM532 431l9 -67q-90 -20 -199 -20h-38v411h201v-66h-127v-278q86 4 154 20zM272 427l8 -67q-68 -16 -165 -16h-34v411h181v-66h-106v-277q59 2 116 15zM515 -9q108 0 168.5 26.5t60.5 74.5 q0 49 -60.5 75.5t-168.5 26.5t-168.5 -26.5t-60.5 -75.5q0 -48 60.5 -74.5t168.5 -26.5zM515 258q146 0 229 -43.5t83 -122.5q0 -78 -83 -121.5t-229 -43.5t-229 43.5t-83 121.5q0 79 83 122.5t229 43.5z" />
<glyph unicode="&#xb5d8;" d="M163 668v-455q75 2 144 17l9 -68q-85 -18 -195 -18h-39v591h222v-67h-141zM432 668v-456q115 2 196 20l8 -67q-95 -22 -241 -22h-44v592h244v-67h-163zM718 822h82v-896h-82v394h-164v67h164v134h-164v67h164v234z" />
<glyph unicode="&#xb5ec;" d="M571 659h147v163h83v-524h-83v151h-147v65h147v80h-147v65zM626 423l8 -67q-90 -20 -245 -20h-45v420h245v-66h-164v-287q124 2 201 20zM304 422l8 -68q-85 -18 -196 -18h-39v420h220v-66h-139v-286q78 2 146 18zM691 269v-44q0 -73 48 -136t131 -91l-40 -61 q-131 47 -180 170q-47 -128 -165 -177q-121 47 -166 175q-53 -119 -177 -168l-42 61q82 30 131 94.5t49 132.5v44h79v-44q0 -63 32 -122t92 -94q61 38 94.5 98.5t33.5 117.5v44h80z" />
<glyph unicode="&#xb610;" d="M804 408v-67h-323v398h312v-66h-230v-265h241zM435 433l8 -67q-111 -25 -270 -25h-49v397h301v-67h-220v-262q130 2 230 24zM499 108h368v-67h-814v67h364v189h82v-189z" />
<glyph unicode="&#xb611;" d="M444 581l10 -66q-114 -24 -276 -24h-49v296h304v-66h-223v-165q126 2 234 25zM141 139v66h620v-285h-82v219h-538zM500 369h364v-67h-812v67h367v128h66v290h301v-66h-221v-164h226v-66h-291v-122z" />
<glyph unicode="&#xb614;" d="M444 573l10 -66q-121 -24 -276 -24h-49v299h304v-66h-223v-167q129 2 234 24zM242 212v-199h533v-67h-615v266h82zM500 358h363v-67h-811v67h367v132h66v292h300v-66h-220v-166h225v-67h-290v-125z" />
<glyph unicode="&#xb618;" d="M444 620l10 -66q-120 -25 -276 -25h-49v262h304v-65h-223v-131q126 2 234 25zM233 90v-90h554v-63h-634v213h526v79h-529v62h610v-201h-527zM499 431h365v-66h-812v66h366v108h67v252h301v-65h-221v-131h226v-66h-292v-98z" />
<glyph unicode="&#xb625;" d="M445 577l10 -67q-115 -24 -277 -24h-49v296h304v-66h-223v-165q129 2 235 26zM459 -11q105 0 164 25t59 71t-59 71t-164 25q-107 0 -166 -25t-59 -71t59 -71t166 -25zM459 245q144 0 225 -41.5t81 -118.5t-80.5 -118t-225.5 -41t-226.5 41t-81.5 118t81.5 118.5 t226.5 41.5zM499 379h368v-67h-814v67h365v115h67v288h301v-66h-221v-163h226v-67h-292v-107z" />
<glyph unicode="&#xb62c;" d="M600 455v-67h-244v345h234v-66h-153v-212h163zM317 472l7 -66q-83 -18 -200 -18h-39v345h227v-66h-146v-213q80 2 151 18zM375 350v-165q154 7 246 19l5 -60q-220 -35 -573 -33l-10 68q117 0 251 3v168h81zM884 450v-69h-127v-454h-82v895h82v-372h127z" />
<glyph unicode="&#xb634;" d="M315 604l9 -62q-80 -21 -200 -21h-38v252h220v-63h-139v-124q88 2 148 18zM613 453l5 -57q-222 -34 -567 -34l-8 65q127 0 240 4v101h67v241h227v-63h-147v-125h156v-64h-222v-87q159 7 249 19zM241 93v-93h545v-64h-627v217h510v87h-512v63h594v-210h-510zM752 613h125 v-68h-125v-202h-82v480h82v-210z" />
<glyph unicode="&#xb648;" d="M517 459v-65h-205v338h198v-66h-123v-207h130zM278 476l9 -66q-76 -19 -170 -19h-34v341h190v-66h-115v-209q66 4 120 19zM330 361v-145q125 5 197 15l4 -59q-178 -31 -477 -31l-10 69q132 0 208 3v148h78zM749 823h77v-897h-77v467h-103v-423h-77v833h77v-343h103v363z " />
<glyph unicode="&#xb664;" d="M628 452v-66h-245v347h238v-66h-158v-215h165zM347 471l7 -66q-86 -19 -209 -19h-41v347h231v-66h-150v-215q87 2 162 19zM404 358v-166q152 7 257 21l6 -60q-222 -36 -600 -34l-11 68q173 0 267 3v168h81zM717 822h82v-896h-82v896z" />
<glyph unicode="&#xb668;" d="M792 821v-663h-82v663h82zM334 547l9 -66q-83 -20 -200 -20h-39v296h223v-66h-142v-163q76 2 149 19zM645 363l6 -59q-219 -34 -586 -34l-12 67q172 0 267 3v128h50v289h236v-66h-155v-163h163v-67h-212v-117q152 7 243 19zM283 7h535v-67h-617v261h82v-194z" />
<glyph unicode="&#xb69c;" d="M801 484v-67h-315v353h307v-66h-225v-220h233zM445 508l6 -67q-120 -24 -274 -24h-49v352h305v-66h-224v-219q123 2 236 24zM866 314v-68h-368v-321h-82v321h-364v68h814z" />
<glyph unicode="&#xb69d;" d="M791 552v-66h-306v304h301v-67h-218v-171h223zM443 576l8 -65q-111 -25 -273 -25h-48v304h303v-67h-220v-171q128 2 230 24zM864 337h-364v-119h261v-293h-82v226h-538v67h277v119h-366v66h812v-66z" />
<glyph unicode="&#xb6a0;" d="M794 529v-66h-309v317h301v-66h-220v-185h228zM444 554l7 -66q-117 -25 -273 -25h-48v317h303v-66h-222v-185q125 2 233 25zM236 210v-197h538v-67h-620v264h82zM52 373h811v-67h-357v-179h-82v179h-372v67z" />
<glyph unicode="&#xb6a4;" d="M794 584v-65h-309v272h301v-65h-220v-142h228zM447 610l9 -66q-119 -25 -277 -25h-49v272h303v-65h-222v-142q128 2 236 26zM864 382h-364v-90h260v-202h-527v-90h554v-63h-634v213h526v79h-529v63h268v90h-366v66h812v-66z" />
<glyph unicode="&#xb6ab;" d="M793 591v-65h-308v265h300v-65h-219v-135h227zM447 616l9 -65q-114 -25 -277 -25h-49v265h303v-65h-222v-135q133 2 236 25zM639 -16q36 0 58 16.5t22 43.5q0 28 -22 44.5t-58 16.5t-58.5 -16.5t-22.5 -44.5q0 -27 22.5 -43.5t58.5 -16.5zM639 161q67 0 108.5 -31.5 t41.5 -85.5q0 -53 -42 -85t-108 -32q-68 0 -110 32t-42 85q0 55 42 86t110 31zM678 327v-78h150v-61h-377v61h147v78h80zM53 462h811v-67h-366v-108h-78v-197h-206v-90q161 0 244 16l9 -62q-89 -16 -281 -16h-50v211h206v81h-207v61h281v104h-363v67z" />
<glyph unicode="&#xb6ac;" d="M794 557v-66h-309v298h301v-66h-220v-166h228zM447 582l8 -66q-114 -25 -276 -25h-49v298h304v-66h-223v-167q128 2 236 26zM686 5v166h-453v-166h453zM865 342h-365v-106h266v-297h-613v297h265v106h-364v67h811v-67z" />
<glyph unicode="&#xb6b1;" d="M794 555v-66h-309v293h301v-66h-220v-161h228zM447 580l9 -66q-114 -25 -277 -25h-49v293h304v-66h-223v-161q133 2 236 25zM682 87q0 46 -59 71t-165 25t-165 -25t-59 -71t59 -71.5t165 -25.5t165 25.5t59 71.5zM864 346h-364v-100q126 -6 195.5 -47t69.5 -112 q0 -77 -81 -119t-225 -42q-145 0 -226.5 42t-81.5 119q0 71 70 112t197 47v100h-366v65h812v-65z" />
<glyph unicode="&#xb6d4;" d="M512 509v-66h-204v306h197v-67h-125v-173h132zM279 526l7 -65q-72 -18 -172 -18h-36v306h194v-67h-121v-174q72 4 128 18zM535 382l6 -59q-95 -18 -215 -25v-299h-78v294q-96 -4 -198 -4l-10 67q313 0 495 26zM583 232v571h76v-829h-76v193h-171v65h171zM746 822h77v-895 h-77v895z" />
<glyph unicode="&#xb6f0;" d="M625 502v-67h-243v322h236v-67h-155v-188h162zM345 520l7 -66q-85 -19 -207 -19h-41v322h231v-67h-150v-189q89 4 160 19zM661 351l5 -60q-108 -17 -267 -26v-310h-82v306q-92 -3 -259 -3l-12 69q410 0 615 24zM715 822h82v-896h-82v896z" />
<glyph unicode="&#xb6f4;" d="M798 823v-680h-82v680h82zM626 534v-65h-243v297h232v-65h-151v-167h162zM348 554l7 -67q-84 -18 -202 -18h-39v297h224v-65h-143v-167q86 4 153 20zM336 167v151q-128 -4 -272 -4l-11 68q386 0 605 24l4 -61q-125 -16 -244 -23v-155h-82zM259 13h563v-67h-645v259h82 v-192z" />
<glyph unicode="&#xb6f8;" d="M798 823v-475h-82v475h82zM625 594v-64h-244v256h234v-65h-154v-127h164zM346 613l7 -65q-85 -18 -202 -18h-39v256h224v-65h-144v-127q86 4 154 19zM269 -1h561v-63h-642v219h529v87h-531v62h141v93q-92 -2 -259 -2l-11 66q413 0 603 19l6 -58q-120 -16 -257 -22v-96 h389v-209h-529v-96z" />
<glyph unicode="&#xb700;" d="M625 559v-66h-244v279h234v-65h-153v-148h163zM346 578l7 -66q-84 -19 -202 -19h-39v279h224v-65h-143v-148q85 4 153 19zM717 4v159h-442v-159h442zM408 359v-131h390v-290h-603v290h131v127q-120 -4 -258 -4l-10 67q381 0 600 20l6 -59q-130 -14 -256 -20zM716 821h82 v-542h-82v542z" />
<glyph unicode="&#xb701;" d="M628 577v-66h-247v263h237v-66h-157v-131h167zM348 593l7 -65q-86 -19 -204 -19h-39v265h224v-66h-144v-134q79 2 156 19zM332 243v130q-116 -5 -264 -5l-11 68q382 0 601 20l6 -60q-128 -14 -251 -20v-133h-81zM716 4v104h-440v-104h440zM716 172v99h81v-333h-602v333 h81v-99h440zM716 822h82v-515h-82v515z" />
<glyph unicode="&#xb705;" d="M798 822v-567h-82v567h82zM625 553v-66h-244v280h234v-66h-153v-148h163zM346 572l7 -66q-84 -19 -202 -19h-39v280h224v-66h-143v-148q85 4 153 19zM501 -9q103 0 161.5 25t58.5 71q0 45 -58.5 70t-161.5 25q-104 0 -162 -25t-58 -70q0 -46 58 -71t162 -25zM408 353 v-113q44 6 93 6q141 0 221.5 -42t80.5 -117q0 -76 -80.5 -118t-221.5 -42q-142 0 -222 42t-80 118q0 97 127 136v126q-119 -4 -258 -4l-10 67q381 0 601 20l5 -58q-122 -15 -256 -21z" />
<glyph unicode="&#xb728;" d="M801 383v-66h-323v412h314v-67h-232v-279h241zM437 408l7 -66q-110 -25 -269 -25h-49v410h303v-66h-221v-277q127 2 229 24zM53 116h813v-68h-813v68z" />
<glyph unicode="&#xb729;" d="M791 547v-67h-306v308h301v-67h-218v-174h223zM443 571l8 -66q-117 -25 -273 -25h-48v308h303v-67h-220v-175q124 2 230 25zM141 157v66h620v-297h-82v231h-538zM52 390h812v-66h-812v66z" />
<glyph unicode="&#xb72c;" d="M791 524v-66h-306v320h301v-66h-218v-188h223zM443 549l8 -66q-117 -25 -273 -25h-48v320h303v-66h-220v-188q124 2 230 25zM239 211v-198h537v-67h-619v265h82zM52 362h812v-67h-812v67z" />
<glyph unicode="&#xb72f;" d="M791 550v-66h-306v304h301v-66h-218v-172h223zM443 574l8 -65q-111 -25 -273 -25h-48v304h303v-66h-220v-172q122 2 230 24zM234 167v-163h539v-66h-620v296h611v-67h-530zM53 400h811v-67h-811v67z" />
<glyph unicode="&#xb730;" d="M794 581v-65h-309v272h301v-65h-220v-142h228zM447 606l9 -65q-119 -25 -277 -25h-49v272h303v-65h-222v-142q127 2 236 25zM233 90v-90h554v-63h-634v213h526v79h-529v63h610v-202h-527zM52 441h812v-66h-812v66z" />
<glyph unicode="&#xb738;" d="M794 552v-66h-309v299h301v-66h-220v-167h228zM447 577l8 -66q-114 -25 -276 -25h-49v299h304v-66h-223v-167q127 2 236 25zM233 169v-165h453v165h-453zM153 -62v297h613v-297h-613zM53 400h811v-66h-811v66z" />
<glyph unicode="&#xb739;" d="M794 557v-66h-309v298h301v-66h-220v-166h228zM447 582l8 -66q-114 -25 -276 -25h-49v298h304v-66h-223v-166q133 2 236 25zM679 5v112h-440v-112h440zM679 182v100h82v-344h-603v344h81v-100h440zM53 413h812v-67h-812v67z" />
<glyph unicode="&#xb73b;" d="M794 542v-66h-309v304h301v-66h-220v-172h228zM447 567l8 -66q-114 -25 -276 -25h-49v304h304v-66h-223v-172q133 2 236 25zM502 254v-28q0 -86 86.5 -149.5t214.5 -82.5l-32 -64q-105 17 -188 65t-123 119q-40 -71 -124 -119t-189 -65l-31 64q128 19 215 82.5t87 149.5 v28h84zM52 393h812v-68h-812v68z" />
<glyph unicode="&#xb744;" d="M625 443v-67h-246v353h238v-67h-157v-219h165zM343 462l7 -67q-86 -19 -209 -19h-41v353h231v-67h-150v-219q90 4 162 19zM66 140l-10 69q403 0 603 26l6 -60q-213 -35 -599 -35zM713 822h83v-895h-83v895z" />
<glyph unicode="&#xb748;" d="M795 821v-665h-82v665h82zM620 521v-66h-242v298h234v-66h-153v-166h161zM343 540l8 -65q-82 -20 -201 -20h-39v298h224v-66h-143v-165q83 2 151 18zM652 382l5 -60q-223 -34 -593 -34l-12 68q394 0 600 26zM288 13h532v-67h-614v258h82v-191z" />
<glyph unicode="&#xb74c;" d="M794 823v-473h-82v473h82zM626 590v-65h-246v262h236v-65h-155v-132h165zM345 610l8 -66q-91 -19 -205 -19h-40v262h228v-65h-147v-131q86 2 156 19zM655 469l5 -56q-217 -27 -595 -27l-11 65q391 0 601 18zM265 -1h561v-63h-642v220h529v87h-531v62h612v-209h-529v-97z " />
<glyph unicode="&#xb754;" d="M628 552v-66h-245v289h235v-66h-154v-157h164zM351 570l7 -64q-86 -20 -207 -20h-40v289h228v-66h-147v-157q86 2 159 18zM655 424l5 -59q-228 -34 -592 -34l-11 66q385 0 598 27zM272 169v-165h442v165h-442zM191 -62v297h603v-297h-603zM711 821h83v-543h-83v543z" />
<glyph unicode="&#xb755;" d="M628 564v-65h-245v281h235v-66h-154v-150h164zM351 583l7 -65q-87 -19 -207 -19h-40v281h228v-66h-147v-149q86 2 159 18zM654 445l5 -59q-227 -34 -591 -34l-11 65q386 0 597 28zM712 5v107h-438v-107h438zM712 177v100h82v-339h-601v339h81v-100h438zM712 822h82v-506 h-82v506z" />
<glyph unicode="&#xb760;" d="M172 664v-437q98 4 171 21l8 -68q-92 -21 -219 -21h-41v572h242v-67h-161zM465 664v-437q112 2 202 21l9 -67q-92 -22 -247 -22h-45v572h253v-67h-172zM718 822h82v-895h-82v895z" />
<glyph unicode="&#xb764;" d="M800 823v-650h-83v650h83zM658 417l7 -65q-96 -20 -241 -20h-44v409h247v-66h-166v-277q111 2 197 19zM338 418l9 -66q-93 -20 -219 -20h-41v409h243v-66h-162v-277q98 4 170 20zM300 13h532v-67h-614v284h82v-217z" />
<glyph unicode="&#xb768;" d="M800 822v-451h-82v451h82zM660 501l8 -65q-85 -18 -244 -18h-44v348h250v-65h-169v-218q125 2 199 18zM339 504l7 -66q-98 -20 -218 -20h-41v348h243v-65h-162v-218q98 4 171 21zM282 3h550v-65h-631v229h519v94h-521v65h601v-221h-518v-102z" />
<glyph unicode="&#xb770;" d="M659 466l7 -67q-101 -20 -241 -20h-45v376h248v-66h-167v-243q106 2 198 20zM338 465l8 -66q-93 -20 -217 -20h-42v376h243v-66h-162v-243q96 4 170 19zM287 198v-194h433v194h-433zM207 -62v326h594v-326h-594zM718 822h83v-506h-83v506z" />
<glyph unicode="&#xb771;" d="M659 476l7 -65q-96 -20 -241 -20h-45v369h248v-66h-167v-237q111 2 198 19zM346 475l8 -66q-99 -21 -225 -21h-42v372h243v-66h-162v-240q102 4 178 21zM718 5v117h-429v-117h429zM718 187v116h81v-365h-592v365h82v-116h429zM718 822h83v-475h-83v475z" />
<glyph unicode="&#xb773;" d="M801 822v-602h-83v602h83zM659 442l7 -65q-91 -20 -241 -20h-45v397h248v-66h-167v-266q106 2 198 20zM338 440l9 -66q-94 -20 -219 -20h-41v400h243v-66h-162v-268q98 4 170 20zM539 282v-43q0 -89 88.5 -156.5t214.5 -87.5l-31 -65q-106 19 -190.5 70t-123.5 125 q-40 -74 -124.5 -125.5t-190.5 -69.5l-31 65q125 20 214.5 88.5t89.5 155.5v43h84z" />
<glyph unicode="&#xb775;" d="M801 822v-540h-83v540h83zM659 447l7 -67q-96 -20 -241 -20h-45v387h248v-66h-169v-254q113 2 200 20zM338 444l8 -67q-93 -20 -217 -20h-42v390h243v-66h-164v-257q98 4 172 20zM504 -10q102 0 160.5 28.5t58.5 78.5q0 49 -58.5 77.5t-160.5 28.5t-161 -28.5t-59 -77.5 q0 -50 59 -78.5t161 -28.5zM504 267q140 0 220.5 -45t80.5 -125q0 -81 -80 -126t-221 -45t-221.5 45t-80.5 126t80.5 125.5t221.5 44.5z" />
<glyph unicode="&#xb77c;" d="M170 418v-208q248 0 413 32l9 -68q-179 -32 -431 -32h-71v343h322v188h-325v67h406v-322h-323zM891 467v-69h-147v-473h-82v899h82v-357h147z" />
<glyph unicode="&#xb77d;" d="M581 422l8 -67q-178 -30 -426 -30h-71v259h321v119h-323v67h404v-249h-321v-129q238 0 408 30zM166 164v66h583v-303h-82v237h-501zM882 593v-68h-133v-248h-82v545h82v-229h133z" />
<glyph unicode="&#xb780;" d="M581 398l8 -68q-172 -29 -426 -29h-71v270h321v127h-323v66h404v-256h-321v-140q238 0 408 30zM279 213v-200h511v-67h-593v267h82zM749 547h133v-68h-133v-317h-82v661h82v-276z" />
<glyph unicode="&#xb784;" d="M582 478l7 -65q-174 -27 -427 -27h-70v233h321v98h-323v64h404v-223h-321v-108q235 0 409 28zM265 98v-98h520v-64h-600v223h483v88h-485v63h566v-212h-484zM749 626h133v-68h-133v-206h-82v471h82v-197z" />
<glyph unicode="&#xb78c;" d="M581 431l8 -67q-172 -29 -426 -29h-71v257h321v115h-323v67h404v-245h-321v-127q244 0 408 29zM264 179v-175h405v175h-405zM184 -62v306h565v-306h-565zM882 593v-68h-133v-237h-82v534h82v-229h133z" />
<glyph unicode="&#xb78d;" d="M581 446l8 -68q-172 -29 -426 -29h-71v252h321v111h-323v66h404v-240h-321v-122q238 0 408 30zM668 5v109h-402v-109h402zM668 178v110h81v-350h-564v350h81v-110h402zM882 607v-69h-133v-211h-82v495h82v-215h133z" />
<glyph unicode="&#xb78f;" d="M92 575h321v124h-323v67h404v-254h-321v-131q244 0 408 29l8 -67q-172 -29 -426 -29h-71v261zM519 262v-26q0 -90 86.5 -156.5t212.5 -86.5l-32 -64q-104 19 -186 68t-121 122q-39 -73 -122 -122t-187 -68l-32 64q127 20 213.5 86.5t86.5 156.5v26h81zM749 578h133v-70 h-133v-288h-82v603h82v-245z" />
<glyph unicode="&#xb790;" d="M413 596v114h-323v67h404v-244h-321v-122q257 0 408 30l8 -68q-158 -29 -426 -29h-71v252h321zM679 263v-39q0 -72 48 -135t132 -92l-41 -60q-131 48 -180 171q-47 -128 -164 -179q-121 47 -167 176q-54 -122 -177 -168l-42 60q83 31 131.5 95t48.5 132v39h79v-39 q0 -63 32 -121.5t93 -93.5q61 38 94 98.5t33 116.5v39h80zM749 602h133v-68h-133v-236h-82v524h82v-220z" />
<glyph unicode="&#xb791;" d="M581 429l8 -67q-172 -29 -426 -29h-71v254h321v113h-323v67h404v-243h-321v-124q244 0 408 29zM463 -10q101 0 157.5 26.5t56.5 73.5t-56.5 73.5t-157.5 26.5t-158 -26.5t-57 -73.5t57 -73.5t158 -26.5zM463 254q137 0 216 -43.5t79 -120.5t-78.5 -120t-216.5 -43 t-216.5 43t-78.5 120q0 78 78.5 121t216.5 43zM749 598h133v-68h-133v-248h-82v540h82v-224z" />
<glyph unicode="&#xb792;" d="M92 596h323v111h-325v67h406v-242h-323v-120q244 0 408 29l8 -67q-172 -29 -426 -29h-71v251zM764 186h-250q10 -68 93 -123t193 -71l-31 -63q-99 16 -179 62t-119 111q-37 -65 -117.5 -110.5t-181.5 -61.5l-30 62q111 17 193.5 71.5t92.5 122.5h-250v66h586v-66z M749 601h133v-68h-133v-231h-82v520h82v-221z" />
<glyph unicode="&#xb796;" d="M581 438l8 -67q-172 -29 -426 -29h-71v252h321v113h-323v67h404v-243h-321v-122q244 0 408 29zM381 192v-189h188v189h-188zM650 192v-189h134v-65h-614v65h130v189h-122v65h595v-65h-123zM749 604h133v-69h-133v-227h-82v514h82v-218z" />
<glyph unicode="&#xb797;" d="M92 624h320v97h-322v64h404v-222h-319v-107q240 0 407 27l7 -64q-173 -28 -427 -28h-70v233zM474 -16q170 0 170 64t-170 64q-171 0 -171 -64t171 -64zM474 170q119 0 184 -31.5t65 -90.5t-65 -90.5t-184 -31.5t-184.5 31.5t-65.5 90.5t65.5 90.5t184.5 31.5zM515 362 v-85h271v-64h-625v64h272v85h82zM749 619h133v-68h-133v-223h-82v494h82v-203z" />
<glyph unicode="&#xb798;" d="M162 410v-201q177 2 310 25l6 -68q-148 -25 -336 -25h-59v336h254v181h-257v67h337v-315h-255zM736 823h79v-896h-79v475h-127v-430h-77v831h77v-334h127v354z" />
<glyph unicode="&#xb799;" d="M481 401l9 -66q-135 -26 -337 -26h-59v260h256v122h-258v66h337v-250h-256v-133q182 2 308 27zM207 150v67h603v-292h-82v225h-521zM731 822h79v-560h-79v255h-120v-247h-78v536h78v-223h120v239z" />
<glyph unicode="&#xb79c;" d="M611 487v-306h-78v625h78v-252h120v268h79v-667h-79v332h-120zM482 381l8 -66q-140 -27 -337 -27h-59v264h256v127h-258v66h337v-255h-256v-135q179 0 309 26zM307 13h529v-67h-611v269h82v-202z" />
<glyph unicode="&#xb7a0;" d="M611 554v-199h-78v451h78v-186h120v202h79v-477h-79v209h-120zM482 470l8 -64q-135 -25 -337 -25h-59v232h256v95h-258v65h337v-221h-256v-106q184 0 309 24zM301 0h541v-64h-622v220h509v85h-511v63h592v-209h-509v-95z" />
<glyph unicode="&#xb7a8;" d="M482 419l8 -66q-141 -26 -337 -26h-59v255h256v116h-258v66h337v-244h-256v-127q179 0 309 26zM301 179v-175h429v175h-429zM221 -62v306h589v-306h-589zM731 823h79v-536h-79v241h-120v-229h-78v507h78v-211h120v228z" />
<glyph unicode="&#xb7a9;" d="M482 449l8 -66q-140 -27 -337 -27h-59v244h256v104h-258v65h337v-231h-256v-116q180 0 309 27zM729 5v113h-426v-113h426zM729 182v103h81v-347h-589v347h82v-103h426zM731 822h79v-496h-79v218h-120v-209h-78v471h78v-196h120v212z" />
<glyph unicode="&#xb7ab;" d="M611 522v-232h-78v516h78v-218h120v234h79v-610h-79v310h-120zM481 396l9 -65q-139 -28 -337 -28h-59v261h256v122h-258v66h337v-250h-256v-133q183 2 308 27zM552 253v-23q0 -84 90 -150.5t214 -86.5l-33 -64q-102 18 -187.5 68.5t-124.5 122.5q-40 -72 -124.5 -122.5 t-187.5 -68.5l-33 64q123 20 213 86.5t90 150.5v23h83z" />
<glyph unicode="&#xb7ac;" d="M611 525v-229h-78v510h78v-215h120v231h79v-532h-79v235h-120zM94 580h256v115h-258v65h337v-242h-256v-123q179 0 309 26l8 -66q-141 -26 -337 -26h-59v251zM700 257v-38q0 -71 48.5 -132t131.5 -89l-40 -61q-133 48 -181 168q-49 -126 -165 -176q-121 48 -166 172 q-53 -117 -178 -164l-41 61q82 29 131 91.5t49 129.5v38h79v-38q0 -61 32 -118t93 -92q60 37 93 96t33 114v38h81z" />
<glyph unicode="&#xb7ad;" d="M611 517v-216h-78v505h78v-222h120v238h79v-553h-79v248h-120zM482 414l8 -66q-135 -26 -337 -26h-59v253h256v115h-258v65h337v-242h-256v-125q179 0 309 26zM514 -9q102 0 160.5 26t58.5 73q0 46 -58.5 72t-160.5 26t-160 -26t-58 -72q0 -47 58 -73t160 -26zM514 252 q139 0 219.5 -43t80.5 -119q0 -77 -80 -120t-220 -43q-139 0 -219 43t-80 120q0 76 80 119t219 43z" />
<glyph unicode="&#xb7b4;" d="M170 418v-208q248 0 413 32l9 -68q-179 -32 -431 -32h-71v343h322v188h-325v67h406v-322h-323zM885 524h-141v-195h141v-68h-141v-336h-82v899h82v-232h141v-68z" />
<glyph unicode="&#xb7b5;" d="M581 422l8 -67q-178 -30 -426 -30h-71v259h321v119h-323v67h404v-249h-321v-129q238 0 408 30zM166 164v66h583v-303h-82v237h-501zM882 612h-133v-120h133v-68h-133v-147h-82v545h82v-142h133v-68z" />
<glyph unicode="&#xb7b8;" d="M581 396l8 -67q-172 -29 -426 -29h-71v270h321v128h-323v66h404v-257h-321v-140q244 0 408 29zM279 213v-200h511v-67h-593v267h82zM882 586h-133v-143h133v-68h-133v-213h-82v661h82v-169h133v-68z" />
<glyph unicode="&#xb7c7;" d="M92 575h321v124h-323v67h404v-254h-321v-131q244 0 408 29l8 -67q-172 -29 -426 -29h-71v261zM519 263v-26q0 -90 86.5 -156.5t212.5 -86.5l-32 -64q-104 19 -186 68t-121 122q-39 -73 -122 -122t-187 -68l-32 64q127 20 213.5 86.5t86.5 156.5v26h81zM882 596h-133v-124 h133v-68h-133v-184h-82v603h82v-159h133v-68z" />
<glyph unicode="&#xb7c9;" d="M581 429l8 -67q-172 -29 -426 -29h-71v254h321v113h-323v67h404v-243h-321v-124q244 0 408 29zM463 -10q101 0 157.5 26.5t56.5 73.5t-56.5 73.5t-157.5 26.5t-158 -26.5t-57 -73.5t57 -73.5t158 -26.5zM463 254q137 0 216 -43.5t79 -120.5t-78.5 -120t-216.5 -43 t-216.5 43t-78.5 120q0 78 78.5 121t216.5 43zM882 615h-133v-121h133v-68h-133v-146h-82v542h82v-139h133v-68z" />
<glyph unicode="&#xb7ec;" d="M167 426v-217q228 0 391 29l8 -68q-163 -29 -411 -29h-69v351h319v181h-321v67h401v-314h-318zM709 824h82v-899h-82v486h-171v67h171v346z" />
<glyph unicode="&#xb7ed;" d="M559 413l7 -67q-164 -26 -407 -26h-68v261h315v121h-318v66h398v-250h-315v-131q223 0 388 26zM191 157v67h601v-298h-83v231h-518zM709 822h83v-548h-83v266h-166v67h166v215z" />
<glyph unicode="&#xb7f0;" d="M709 165v354h-167v70h167v233h83v-657h-83zM558 379l8 -67q-150 -25 -408 -25h-68v274h314v133h-316v66h398v-262h-315v-144q238 0 387 25zM295 13h524v-67h-606v268h82v-201z" />
<glyph unicode="&#xb7f4;" d="M709 352v223h-167v66h167v181h83v-470h-83zM560 475l7 -65q-165 -25 -408 -25h-68v232h314v99h-317v64h398v-224h-314v-107q225 0 388 26zM291 1h536v-65h-617v219h501v89h-503v63h583v-212h-500v-94z" />
<glyph unicode="&#xb7fc;" d="M559 425l7 -67q-164 -26 -407 -26h-68v259h315v120h-318v66h398v-249h-315v-129q223 0 388 26zM285 181v-177h426v177h-426zM205 -62v309h587v-309h-587zM709 822h83v-527h-83v260h-166v67h166v200z" />
<glyph unicode="&#xb7fd;" d="M559 446l7 -67q-158 -25 -407 -25h-68v251h315v114h-318v67h398v-244h-315v-121q230 0 388 25zM711 5v110h-422v-110h422zM711 180v107h81v-349h-585v349h82v-107h422zM709 822h83v-493h-83v241h-166v66h166v186z" />
<glyph unicode="&#xb7ff;" d="M709 205v341h-166v67h166v209h83v-617h-83zM91 575h315v125h-318v67h398v-255h-315v-133q225 0 387 30l8 -67q-163 -30 -407 -30h-68v263zM543 264v-29q0 -90 88 -156t215 -85l-31 -64q-106 19 -190 67.5t-123 121.5q-39 -72 -123 -121t-190 -68l-31 64q126 19 214.5 85 t88.5 156v29h82z" />
<glyph unicode="&#xb800;" d="M709 294v265h-166v66h166v197h83v-528h-83zM91 595h315v118h-318v67h398v-247h-315v-128q230 0 388 25l7 -67q-158 -25 -407 -25h-68v257zM691 264v-40q0 -72 48.5 -135.5t132.5 -91.5l-42 -60q-131 48 -180 171q-47 -130 -165 -179q-121 46 -167 176q-53 -121 -178 -168 l-40 60q82 31 130.5 95t48.5 132v40h79v-40q0 -63 32 -121.5t93 -93.5q61 38 94.5 98t33.5 117v40h80z" />
<glyph unicode="&#xb801;" d="M709 268v280h-166v66h166v208h83v-554h-83zM559 415l7 -67q-164 -26 -407 -26h-68v262h315v121h-318v66h398v-249h-315v-133q223 0 388 26zM497 -10q102 0 159.5 27t57.5 75t-58 75t-159 27q-102 0 -159.5 -27t-57.5 -75q0 -49 57.5 -75.5t159.5 -26.5zM497 257 q139 0 218.5 -43.5t79.5 -121.5q0 -79 -79.5 -122.5t-218.5 -43.5q-140 0 -219.5 43.5t-79.5 122.5q0 78 79.5 121.5t219.5 43.5z" />
<glyph unicode="&#xb807;" d="M709 330v250h-167v67h167v175h83v-492h-83zM559 480l7 -64q-166 -28 -408 -28h-68v231h314v99h-316v64h398v-224h-315v-106q223 0 388 28zM498 -14q172 0 172 67t-172 67q-170 0 -170 -67t170 -67zM498 179q120 0 185.5 -32.5t65.5 -93.5t-65.5 -93.5t-185.5 -32.5 q-119 0 -184 32.5t-65 93.5t65 93.5t184 32.5zM540 280h271v-63h-625v63h272v84h82v-84z" />
<glyph unicode="&#xb808;" d="M162 413v-198q176 0 314 24l7 -67q-155 -26 -341 -26h-59v332h240v179h-243v67h322v-311h-240zM555 501v300h77v-828h-77v460h-111v68h111zM736 823h79v-897h-79v897z" />
<glyph unicode="&#xb809;" d="M555 270v256h-110v67h110v213h78v-536h-78zM478 398l9 -65q-139 -27 -335 -27h-58v261h237v122h-239v66h318v-250h-237v-133q185 2 305 26zM210 153v66h600v-294h-82v228h-518zM731 822h79v-558h-79v558z" />
<glyph unicode="&#xb80c;" d="M810 822v-673h-79v673h79zM555 172v335h-110v67h110v232h78v-634h-78zM478 379l9 -65q-139 -27 -335 -27h-58v267h236v131h-238v64h318v-257h-236v-139q187 2 304 26zM307 13h529v-67h-611v270h82v-203z" />
<glyph unicode="&#xb810;" d="M810 822v-474h-79v474h79zM555 356v219h-110v66h110v166h78v-451h-78zM477 467l9 -64q-140 -26 -334 -26h-58v235h237v98h-239v65h318v-224h-237v-109q178 2 304 25zM301 0h541v-64h-622v219h509v88h-511v63h592v-212h-509v-94z" />
<glyph unicode="&#xb818;" d="M555 289v256h-110v67h110v194h78v-517h-78zM479 420l8 -66q-131 -24 -335 -24h-58v249h237v117h-239v66h318v-244h-237v-123q183 2 306 25zM301 174v-170h429v170h-429zM221 -62v301h589v-301h-589zM731 823h79v-541h-79v541z" />
<glyph unicode="&#xb819;" d="M555 328v226h-110v67h110v182h78v-475h-78zM475 433l9 -65q-136 -25 -332 -25h-58v245h237v110h-239v66h318v-238h-237v-117q181 2 302 24zM729 5v112h-425v-112h425zM729 181v102h81v-345h-588v345h82v-102h425zM731 823h79v-502h-79v502z" />
<glyph unicode="&#xb81b;" d="M810 822v-613h-79v613h79zM555 282v243h-110v67h110v211h78v-521h-78zM478 395l8 -65q-137 -27 -334 -27h-58v261h237v124h-239v65h318v-251h-237v-133q179 2 305 26zM552 251v-23q0 -83 90.5 -149.5t213.5 -85.5l-32 -64q-103 18 -188.5 68t-124.5 122 q-39 -72 -124 -122t-188 -68l-33 64q123 19 213 85.5t90 149.5v23h83z" />
</font>
</defs>
</svg>
