<?xml version="1.0" standalone="no"?>
<!DOCTYPE svg PUBLIC "-//W3C//DTD SVG 1.1//EN" "http://www.w3.org/Graphics/SVG/1.1/DTD/svg11.dtd" >
<svg xmlns="http://www.w3.org/2000/svg" xmlns:xlink="http://www.w3.org/1999/xlink" version="1.1">
<metadata></metadata>
<defs>
<font id="notokr-mediumregular" horiz-adv-x="920" >
<font-face units-per-em="1000" ascent="800" descent="-200" />
<missing-glyph horiz-adv-x="225" />
<glyph unicode=" "  horiz-adv-x="225" />
<glyph unicode="&#x09;" horiz-adv-x="225" />
<glyph unicode="&#xa0;" horiz-adv-x="225" />
<glyph unicode="!" horiz-adv-x="343" d="M133 235l-16 400l-3 118h116l-4 -118l-16 -400h-77zM171 -13q-33 0 -54.5 22.5t-21.5 57.5t22 58.5t54 23.5q33 0 55.5 -23.5t22.5 -58.5t-22.5 -57.5t-55.5 -22.5z" />
<glyph unicode="&#x22;" horiz-adv-x="518" d="M115 458l-23 199l-3 118h119l-3 -118l-23 -199h-67zM335 458l-23 199l-4 118h120l-3 -118l-23 -199h-67z" />
<glyph unicode="#" horiz-adv-x="570" d="M100 0l27 224h-87v77h96l19 153h-93v77h102l26 200h70l-24 -200h138l26 200h71l-25 -200h90v-77h-99l-19 -153h95v-77h-104l-27 -224h-72l27 224h-138l-28 -224h-71zM207 301h139l19 153h-139z" />
<glyph unicode="$" horiz-adv-x="570" d="M489 641l-60 -67q-34 32 -63 46.5t-69 14.5q-48 0 -76 -25.5t-28 -71.5q0 -40 32 -69t77.5 -49.5t90.5 -45.5t77 -70.5t32 -110.5q0 -81 -46 -134.5t-128 -67.5v-114h-80v111q-52 5 -104 28.5t-90 57.5l52 79q87 -72 169 -72q57 0 86.5 27t29.5 77q0 38 -23 67.5t-57 47 t-74.5 40t-74.5 44.5t-57 60.5t-23 88.5q0 77 45 129t121 65v113h80v-112q89 -11 161 -87z" />
<glyph unicode="%" horiz-adv-x="939" d="M208 284q-78 0 -125 62t-47 172q0 109 47 170.5t125 61.5q79 0 126 -61.5t47 -170.5t-47.5 -171.5t-125.5 -62.5zM208 352q41 0 65 42t24 124t-24 123t-65 41q-40 0 -64 -41t-24 -123t24 -124t64 -42zM231 -13l403 763h73l-404 -763h-72zM731 -13q-79 0 -126 62t-47 171 t47 170.5t126 61.5q78 0 125 -61.5t47 -170.5t-47 -171t-125 -62zM731 54q40 0 64 42t24 124t-24 123t-64 41q-41 0 -65 -41t-24 -123t24 -124t65 -42z" />
<glyph unicode="&#x26;" horiz-adv-x="705" d="M144 199q0 -54 38 -88t96 -34q64 0 127 50q-111 95 -182 199q-79 -67 -79 -127zM225 571q0 -51 31 -116q57 37 86.5 68.5t29.5 73.5q0 32 -16 52.5t-48 20.5q-37 0 -60 -27.5t-23 -71.5zM687 81l-29 -94q-84 20 -175 81q-94 -81 -219 -81q-104 0 -167 58t-63 147 q0 69 37.5 118.5t104.5 93.5q-48 93 -48 166q0 77 49.5 128.5t129.5 51.5q72 0 114 -42t42 -110q0 -35 -12.5 -65.5t-40 -58.5t-49.5 -46t-61 -46q71 -100 175 -183q66 86 99 204h106q-44 -149 -128 -259q75 -48 135 -63z" />
<glyph unicode="'" horiz-adv-x="298" d="M115 458l-23 199l-3 118h119l-3 -118l-23 -199h-67z" />
<glyph unicode="(" horiz-adv-x="355" d="M237 -199q-148 242 -148 512q0 271 148 511l72 -31q-126 -211 -126 -480q0 -270 126 -480z" />
<glyph unicode=")" horiz-adv-x="355" d="M118 -199l-72 32q126 210 126 480q0 269 -126 480l72 31q149 -239 149 -511q0 -271 -149 -512z" />
<glyph unicode="*" horiz-adv-x="484" d="M159 448l-52 38l64 109l-113 48l20 61l120 -29l11 126h65l11 -125l120 28l20 -61l-113 -48l65 -109l-52 -38l-83 97z" />
<glyph unicode="+" horiz-adv-x="570" d="M241 113v216h-203v84h203v216h88v-216h203v-84h-203v-216h-88z" />
<glyph unicode="," horiz-adv-x="298" d="M79 -200l-26 65q51 21 79.5 57t29.5 80q-4 -1 -11 -1q-32 0 -54.5 19.5t-22.5 54.5q0 33 23 53.5t57 20.5q42 0 65.5 -33t23.5 -91q0 -78 -43 -137t-121 -88z" />
<glyph unicode="-" horiz-adv-x="357" d="M47 240v85h264v-85h-264z" />
<glyph unicode="." horiz-adv-x="298" d="M149 -13q-33 0 -55 22.5t-22 57.5t22.5 58.5t54.5 23.5t54.5 -23.5t22.5 -58.5t-22 -57.5t-55 -22.5z" />
<glyph unicode="/" horiz-adv-x="390" d="M12 -180l278 978h80l-278 -978h-80z" />
<glyph unicode="0" horiz-adv-x="570" d="M285 -13q-111 0 -174.5 98t-63.5 286q0 187 63 283t175 96q111 0 174.5 -96.5t63.5 -282.5q0 -188 -63.5 -286t-174.5 -98zM285 78q128 0 128 293q0 288 -128 288t-128 -288q0 -293 128 -293z" />
<glyph unicode="1" horiz-adv-x="570" d="M86 0v95h161v512h-132v73q100 19 160 56h87v-641h144v-95h-420z" />
<glyph unicode="2" horiz-adv-x="570" d="M44 0v67q168 148 248.5 258t80.5 198q0 62 -32.5 98.5t-92.5 36.5q-74 0 -145 -82l-65 64q51 55 103.5 82.5t120.5 27.5q101 0 161.5 -60.5t60.5 -160.5t-70.5 -207.5t-198.5 -230.5q67 7 120 7h184v-98h-475z" />
<glyph unicode="3" horiz-adv-x="570" d="M268 -13q-150 0 -240 101l56 74q79 -81 174 -81q63 0 101.5 33t38.5 89q0 66 -50 100.5t-168 34.5v85q193 0 193 129q0 49 -30.5 77.5t-82.5 29.5q-77 -1 -147 -70l-60 72q99 89 211 89q101 0 163 -50t62 -140q0 -62 -33.5 -106.5t-93.5 -66.5v-5q67 -17 109.5 -65 t42.5 -119q0 -97 -70.5 -154t-175.5 -57z" />
<glyph unicode="4" horiz-adv-x="570" d="M136 287h202v193q0 22 6 142h-4q-25 -52 -59 -113zM540 287v-89h-94v-198h-108v198h-318v77l293 461h133v-449h94z" />
<glyph unicode="5" horiz-adv-x="570" d="M268 -13q-141 0 -241 98l55 75q79 -79 172 -79q64 0 105 42.5t41 114.5t-38 113t-102 41q-54 0 -118 -42l-56 37l22 349h373v-97h-273l-17 -189q50 26 101 26q98 0 161 -59.5t63 -174.5q0 -117 -73 -186t-175 -69z" />
<glyph unicode="6" horiz-adv-x="570" d="M306 75q49 0 81.5 41.5t32.5 111.5q0 72 -31 110t-90 38q-77 0 -137 -86q18 -215 144 -215zM515 671l-63 -70q-21 24 -52 39.5t-63 15.5q-77 0 -125 -66.5t-52 -214.5q32 39 76 62t84 23q96 0 151.5 -59t55.5 -173q0 -107 -64 -174t-156 -67q-111 0 -182.5 94t-71.5 273 q0 199 79.5 297.5t198.5 98.5q109 0 184 -79z" />
<glyph unicode="7" horiz-adv-x="570" d="M193 0q10 207 54 350.5t148 288.5h-346v97h474v-70q-64 -80 -104 -152.5t-62.5 -155.5t-31.5 -161t-14 -197h-118z" />
<glyph unicode="8" horiz-adv-x="570" d="M286 -13q-104 0 -172 55.5t-68 140.5q0 68 37.5 118t94.5 80v5q-99 70 -99 172q0 85 59 137.5t151 52.5q95 0 151.5 -54t56.5 -141q0 -52 -28.5 -98t-68.5 -75v-5q124 -71 124 -195q0 -83 -66.5 -138t-171.5 -55zM334 409q66 61 66 137q0 52 -30 85.5t-83 33.5 q-46 0 -75.5 -29t-29.5 -78q0 -55 39 -87.5t113 -61.5zM288 70q57 0 92 31t35 82q0 32 -12.5 57t-42.5 45t-54 31.5t-72 31.5q-86 -59 -86 -154q0 -54 40 -89t100 -35z" />
<glyph unicode="9" horiz-adv-x="570" d="M269 360q78 0 140 90q-8 106 -46 158.5t-100 52.5q-49 0 -81 -41.5t-32 -111.5q0 -71 31 -109.5t88 -38.5zM55 65l62 71q48 -55 121 -55t120.5 67t52.5 215q-32 -40 -76 -63t-86 -23q-95 0 -150.5 59t-55.5 172q0 107 63.5 174.5t155.5 67.5q112 0 183.5 -91.5 t71.5 -265.5q0 -204 -78.5 -305t-195.5 -101q-112 0 -188 78z" />
<glyph unicode=":" horiz-adv-x="298" d="M149 380q-32 0 -54.5 23t-22.5 57q0 35 22.5 58.5t54.5 23.5t54.5 -23.5t22.5 -58.5q0 -34 -22.5 -57t-54.5 -23zM149 -13q-33 0 -55 22.5t-22 57.5t22.5 58.5t54.5 23.5t54.5 -23.5t22.5 -58.5t-22 -57.5t-55 -22.5z" />
<glyph unicode=";" horiz-adv-x="298" d="M149 380q-32 0 -54.5 23t-22.5 57q0 35 22.5 58.5t54.5 23.5t54.5 -23.5t22.5 -58.5q0 -34 -22.5 -57t-54.5 -23zM79 -200l-26 65q51 21 79.5 57t29.5 80q-4 -1 -11 -1q-32 0 -54.5 19.5t-22.5 54.5q0 33 23 53.5t57 20.5q42 0 65.5 -33t23.5 -91q0 -78 -43 -137 t-121 -88z" />
<glyph unicode="&#x3c;" horiz-adv-x="570" d="M532 138l-494 192v86l494 193v-98l-225 -80l-151 -56v-4l151 -55l225 -81v-97z" />
<glyph unicode="=" horiz-adv-x="570" d="M38 453v84h494v-84h-494zM38 205v84h494v-84h-494z" />
<glyph unicode="&#x3e;" horiz-adv-x="570" d="M38 138v97l225 81l152 55v4l-152 56l-225 80v98l494 -193v-86z" />
<glyph unicode="?" horiz-adv-x="491" d="M178 235q-7 47 6 89t36.5 73t47.5 59.5t42 59.5t18 60q0 43 -26 70t-72 27q-67 0 -121 -61l-65 59q84 96 199 96q89 0 143 -48.5t54 -134.5q0 -40 -18 -77t-43.5 -66.5t-50 -59.5t-39.5 -67.5t-10 -78.5h-101zM230 -13q-33 0 -55 22.5t-22 57.5t22 58.5t55 23.5 q32 0 54.5 -23.5t22.5 -58.5t-22 -57.5t-55 -22.5z" />
<glyph unicode="@" horiz-adv-x="972" d="M462 -180q-113 0 -203.5 45t-146.5 139t-56 225q0 112 39 207.5t104.5 160.5t153 101.5t184.5 36.5q173 0 276 -105.5t103 -276.5q0 -139 -73 -220t-162 -81q-48 0 -81 22t-39 63h-3q-27 -34 -64 -55t-72 -21q-62 0 -101 43.5t-39 118.5q0 99 63.5 182t156.5 83 q60 0 89 -55h2l14 46h74l-47 -231q-29 -121 58 -121q56 0 101 62t45 160q0 139 -79.5 225.5t-230.5 86.5q-74 0 -144.5 -31t-125 -85.5t-87.5 -136.5t-33 -176q0 -160 93.5 -249t239.5 -89q94 0 178 48l29 -66q-99 -56 -216 -56zM445 136q44 0 95 62l30 171q-25 42 -66 42 q-57 0 -94.5 -58t-37.5 -124q0 -47 20 -70t53 -23z" />
<glyph unicode="A" horiz-adv-x="622" d="M208 301h201l-29 99q-19 60 -70 245h-4q-28 -110 -68 -245zM499 0l-62 210h-256l-63 -210h-118l244 736h134l244 -736h-123z" />
<glyph unicode="B" horiz-adv-x="667" d="M97 0v736h228q260 0 260 -181q0 -54 -28.5 -98.5t-76.5 -60.5v-5q66 -14 105.5 -58.5t39.5 -116.5q0 -106 -77.5 -161t-204.5 -55h-246zM213 429h99q159 0 159 111q0 57 -38 81.5t-118 24.5h-102v-217zM213 91h117q181 0 181 131q0 119 -181 119h-117v-250z" />
<glyph unicode="C" horiz-adv-x="646" d="M384 -13q-143 0 -235 101.5t-92 277.5t94.5 280t237.5 104q124 0 209 -93l-63 -74q-64 66 -144 66q-96 0 -155.5 -75.5t-59.5 -203.5q0 -131 57 -206.5t155 -75.5q91 0 163 78l62 -73q-92 -106 -229 -106z" />
<glyph unicode="D" horiz-adv-x="699" d="M97 0v736h191q171 0 263 -93t92 -272q0 -178 -91.5 -274.5t-257.5 -96.5h-197zM213 95h67q119 0 181 69.5t62 206.5q0 271 -243 271h-67v-547z" />
<glyph unicode="E" horiz-adv-x="600" d="M97 0v736h435v-97h-319v-205h270v-98h-270v-238h330v-98h-446z" />
<glyph unicode="F" horiz-adv-x="566" d="M97 0v736h436v-97h-320v-225h272v-97h-272v-317h-116z" />
<glyph unicode="G" horiz-adv-x="701" d="M397 -13q-151 0 -245.5 101t-94.5 278q0 176 96.5 280t246.5 104q130 0 219 -93l-63 -74q-64 66 -152 66q-104 0 -166 -75t-62 -204q0 -133 60 -207.5t173 -74.5q75 0 116 36v173h-146v95h251v-319q-39 -39 -99.5 -62.5t-133.5 -23.5z" />
<glyph unicode="H" horiz-adv-x="740" d="M97 0v736h116v-300h315v300h116v-736h-116v335h-315v-335h-116z" />
<glyph unicode="I" horiz-adv-x="309" d="M97 0v736h116v-736h-116z" />
<glyph unicode="J" horiz-adv-x="550" d="M243 -13q-144 0 -213 122l81 59q44 -80 119 -80q57 0 84 34.5t27 113.5v500h116v-511q0 -106 -53.5 -172t-160.5 -66z" />
<glyph unicode="K" horiz-adv-x="663" d="M97 0v736h116v-348h3l280 348h129l-228 -284l266 -452h-129l-208 360l-113 -138v-222h-116z" />
<glyph unicode="L" horiz-adv-x="557" d="M97 0v736h116v-638h311v-98h-427z" />
<glyph unicode="M" horiz-adv-x="830" d="M97 0v736h133l135 -372q9 -26 25 -76t24 -73h5q8 24 23.5 73.5t24.5 75.5l133 372h134v-736h-108v364q0 60 15 228h-4l-59 -170l-128 -351h-72l-129 351l-58 170h-4q14 -188 14 -228v-364h-104z" />
<glyph unicode="N" horiz-adv-x="734" d="M97 0v736h119l244 -432l77 -156h5q-15 190 -15 245v343h110v-736h-119l-244 434l-77 154h-5q15 -190 15 -241v-347h-110z" />
<glyph unicode="O" horiz-adv-x="754" d="M377 -13q-143 0 -231.5 104t-88.5 280q0 175 88 277t232 102t232.5 -102t88.5 -277q0 -176 -89 -280t-232 -104zM377 88q92 0 147 77t55 206t-55 203.5t-147 74.5t-146.5 -74.5t-54.5 -203.5q0 -130 54.5 -206.5t146.5 -76.5z" />
<glyph unicode="P" horiz-adv-x="647" d="M97 0v736h223q281 0 281 -222q0 -116 -75.5 -175.5t-201.5 -59.5h-111v-279h-116zM213 372h100q89 0 131.5 34.5t42.5 107.5q0 70 -43.5 99.5t-134.5 29.5h-96v-271z" />
<glyph unicode="Q" horiz-adv-x="754" d="M176 371q0 -133 54.5 -211t146.5 -78t147 78t55 211q0 129 -55 203.5t-147 74.5t-146.5 -74.5t-54.5 -203.5zM699 -85l22 -87q-41 -19 -113 -19q-103 0 -177 49.5t-109 132.5q-121 21 -193 121.5t-72 258.5q0 175 88 277t232 102t232.5 -102t88.5 -277q0 -153 -68.5 -253 t-183.5 -124q48 -90 175 -90q41 0 78 11z" />
<glyph unicode="R" horiz-adv-x="655" d="M213 643v-253h111q165 0 165 133q0 65 -41 92.5t-124 27.5h-111zM630 0h-131l-167 297h-119v-297h-116v736h241q266 0 266 -213q0 -163 -154 -211z" />
<glyph unicode="S" horiz-adv-x="608" d="M307 -13q-156 0 -262 108l68 80q87 -87 196 -87q66 0 102.5 28.5t36.5 75.5q0 24 -7.5 41.5t-27.5 32t-34.5 22t-48.5 22.5l-102 44q-150 63 -150 193q0 87 68.5 145t173.5 58q132 0 223 -93l-61 -74q-74 66 -162 66q-57 0 -90.5 -25.5t-33.5 -69.5q0 -23 9 -40t29 -30.5 t35.5 -21t45.5 -19.5l101 -43q72 -31 111 -77t39 -122q0 -91 -70.5 -152.5t-188.5 -61.5z" />
<glyph unicode="T" horiz-adv-x="610" d="M247 0v639h-216v97h549v-97h-217v-639h-116z" />
<glyph unicode="U" horiz-adv-x="733" d="M367 -13q-274 0 -274 329v420h116v-428q0 -220 158 -220q161 0 161 220v428h112v-420q0 -329 -273 -329z" />
<glyph unicode="V" horiz-adv-x="594" d="M229 0l-231 736h123l109 -381q12 -39 32.5 -117.5t34.5 -123.5h5q14 47 35.5 126t31.5 115l109 381h118l-230 -736h-137z" />
<glyph unicode="W" horiz-adv-x="894" d="M173 0l-151 736h120l69 -383l39 -236h4q19 93 50 236l95 383h102l96 -383q10 -45 28.5 -133.5t21.5 -102.5h5q7 47 20.5 132.5t16.5 103.5l70 383h111l-145 -736h-143l-99 409q-19 84 -34 169h-5q-6 -34 -34 -169l-97 -409h-140z" />
<glyph unicode="X" horiz-adv-x="596" d="M16 0l211 380l-198 356h129l89 -172q9 -17 56 -111h5q35 81 50 111l87 172h122l-198 -362l212 -374h-129l-97 183q-10 19 -30 59t-31 61h-4q-32 -70 -57 -120l-94 -183h-123z" />
<glyph unicode="Y" horiz-adv-x="553" d="M218 0v279l-221 457h124l85 -195q49 -118 69 -162h4q5 13 31 71.5t39 90.5l86 195h121l-222 -457v-279h-116z" />
<glyph unicode="Z" horiz-adv-x="607" d="M47 0v70l369 569h-335v97h478v-69l-368 -569h372v-98h-516z" />
<glyph unicode="[" horiz-adv-x="355" d="M104 -171v967h211v-63h-125v-840h125v-64h-211z" />
<glyph unicode="\" horiz-adv-x="390" d="M298 -180l-278 978h80l278 -978h-80z" />
<glyph unicode="]" horiz-adv-x="355" d="M40 -171v64h125v840h-125v63h212v-967h-212z" />
<glyph unicode="^" horiz-adv-x="570" d="M64 316l172 437h98l172 -437h-98l-67 181l-54 151h-5l-53 -151l-67 -181h-98z" />
<glyph unicode="_" horiz-adv-x="562" d="M13 -146v71h536v-71h-536z" />
<glyph unicode="`" horiz-adv-x="614" d="M315 644l-186 173l80 77l164 -193z" />
<glyph unicode="a" horiz-adv-x="575" d="M217 -13q-72 0 -117 43.5t-45 115.5q0 88 78.5 136.5t250.5 67.5q-2 120 -105 120q-71 0 -159 -56l-43 78q114 72 222 72q101 0 150.5 -60.5t49.5 -172.5v-331h-94l-10 63h-3q-88 -76 -175 -76zM252 78q62 0 132 64v135q-118 -14 -168 -44.5t-50 -78.5q0 -39 23.5 -57.5 t62.5 -18.5z" />
<glyph unicode="b" horiz-adv-x="629" d="M343 -13q-79 0 -152 70h-3l-11 -57h-90v797h114v-211l-3 -94q83 72 164 72q103 0 160.5 -76t57.5 -204q0 -136 -69.5 -216.5t-167.5 -80.5zM321 82q62 0 101 53t39 147q0 186 -129 186q-63 0 -131 -67v-269q57 -50 120 -50z" />
<glyph unicode="c" horiz-adv-x="517" d="M311 -13q-115 0 -189 77t-74 210t79 211.5t193 78.5q89 0 161 -63l-57 -75q-48 43 -99 43q-69 0 -113.5 -54t-44.5 -141t43 -140t112 -53q61 0 120 50l47 -76q-76 -68 -178 -68z" />
<glyph unicode="d" horiz-adv-x="630" d="M277 -13q-105 0 -166 76t-61 211q0 130 70 210t166 80q75 0 148 -62l-5 91v204h115v-797h-94l-10 62h-3q-73 -75 -160 -75zM304 82q67 0 125 67v269q-55 50 -121 50q-59 0 -99 -52.5t-40 -139.5q0 -93 35 -143.5t100 -50.5z" />
<glyph unicode="e" horiz-adv-x="565" d="M316 -13q-115 0 -191.5 77.5t-76.5 209.5q0 129 75 209.5t176 80.5q107 0 165.5 -70.5t58.5 -190.5q0 -36 -5 -58h-357q7 -78 52.5 -123t117.5 -45q68 0 131 41l40 -73q-87 -58 -186 -58zM160 324h264q0 72 -31.5 111t-91.5 39q-54 0 -93.5 -40t-47.5 -110z" />
<glyph unicode="f" horiz-adv-x="345" d="M377 791l-23 -86q-31 14 -60 14q-73 0 -73 -99v-70h111v-92h-111v-458h-115v458h-75v86l75 6v69q0 89 42.5 140t131.5 51q54 0 97 -19z" />
<glyph unicode="g" horiz-adv-x="578" d="M275 -247q-103 0 -165.5 37.5t-62.5 107.5q0 71 80 120v5q-50 30 -50 91q0 57 61 102v4q-31 24 -51.5 62t-20.5 84q0 91 62 144.5t151 53.5q43 0 80 -14h195v-86h-105q36 -38 36 -101q0 -87 -58.5 -138t-147.5 -51q-40 0 -77 17q-30 -27 -30 -58q0 -54 92 -54h101 q198 0 198 -134q0 -82 -79.5 -137t-208.5 -55zM279 248q44 0 74 32.5t30 85.5q0 54 -29.5 85.5t-74.5 31.5t-74.5 -31t-29.5 -86q0 -53 30 -85.5t74 -32.5zM292 -171q70 0 115 29t45 69q0 33 -25 46.5t-78 13.5h-83q-37 0 -74 8q-47 -34 -47 -80q0 -40 39.5 -63t107.5 -23z " />
<glyph unicode="h" horiz-adv-x="621" d="M87 0v797h114v-211l-4 -109q91 87 178 87q169 0 169 -218v-346h-115v332q0 71 -22 102t-71 31q-36 0 -65.5 -17.5t-69.5 -57.5v-390h-114z" />
<glyph unicode="i" horiz-adv-x="287" d="M87 0v550h114v-550h-114zM144 653q-32 0 -52.5 19t-20.5 49t20.5 49t52.5 19t53 -19t21 -49t-21 -49t-53 -19z" />
<glyph unicode="j" horiz-adv-x="288" d="M37 -237q-48 0 -85 15l21 86q34 -9 49 -9q37 0 51.5 25t14.5 77v593h115v-591q0 -196 -166 -196zM145 653q-32 0 -52.5 19t-20.5 49t20.5 49t52.5 19t53 -19t21 -49t-21 -49t-53 -19z" />
<glyph unicode="k" horiz-adv-x="575" d="M87 0v797h112v-514h3l216 267h127l-187 -223l208 -327h-125l-149 249l-93 -107v-142h-112z" />
<glyph unicode="l" horiz-adv-x="298" d="M201 -13q-114 0 -114 142v668h114v-674q0 -42 28 -42q9 0 19 2l15 -87q-25 -9 -62 -9z" />
<glyph unicode="m" horiz-adv-x="942" d="M87 0v550h94l9 -77h3q86 91 170 91q114 0 152 -101q94 101 179 101q169 0 169 -218v-346h-115v332q0 70 -22.5 101.5t-69.5 31.5q-55 0 -124 -75v-390h-115v332q0 71 -22 102t-70 31q-55 0 -124 -75v-390h-114z" />
<glyph unicode="n" horiz-adv-x="624" d="M87 0v550h94l9 -76h3q94 90 182 90q169 0 169 -218v-346h-115v332q0 71 -22 102t-71 31q-36 0 -65.5 -17.5t-69.5 -57.5v-390h-114z" />
<glyph unicode="o" horiz-adv-x="614" d="M307 -13q-107 0 -183 78t-76 209q0 133 76 211.5t183 78.5t183 -78.5t76 -211.5q0 -131 -76 -209t-183 -78zM307 81q65 0 103 52.5t38 140.5t-38 141.5t-103 53.5q-64 0 -102 -53.5t-38 -141.5q0 -87 38 -140t102 -53z" />
<glyph unicode="p" horiz-adv-x="630" d="M87 -223v773h94l9 -60h3q89 74 169 74q103 0 160.5 -75.5t57.5 -204.5q0 -136 -69.5 -216.5t-167.5 -80.5q-72 0 -145 62l3 -94v-178h-114zM321 82q62 0 101 53t39 147q0 186 -129 186q-61 0 -131 -67v-269q58 -50 120 -50z" />
<glyph unicode="q" horiz-adv-x="630" d="M429 -223v187l5 95q-74 -72 -157 -72q-105 0 -166 76t-61 211q0 130 70 210t166 80q83 0 153 -67h4l10 53h91v-773h-115zM304 82q67 0 125 67v269q-55 50 -121 50q-59 0 -99 -52.5t-40 -139.5q0 -93 35 -143.5t100 -50.5z" />
<glyph unicode="r" horiz-adv-x="409" d="M87 0v550h94l9 -99h3q29 53 70.5 83t85.5 30q37 0 62 -12l-21 -100q-29 9 -55 9q-37 0 -73 -28.5t-61 -89.5v-343h-114z" />
<glyph unicode="s" horiz-adv-x="480" d="M236 -13q-115 0 -207 76l54 74q79 -63 156 -63q48 0 72.5 20.5t24.5 53.5q0 14 -8 27t-16.5 21t-29.5 18.5t-31 14.5t-37 14q-34 13 -56.5 24.5t-48.5 30.5t-39 45.5t-13 59.5q0 70 53 115.5t142 45.5q95 0 179 -65l-54 -71q-65 48 -123 48q-43 0 -65.5 -19t-22.5 -49 q0 -21 18 -38t33.5 -23.5t55.5 -21.5q7 -3 10 -4q38 -14 59.5 -24.5t49 -30t40.5 -47.5t13 -65q0 -72 -55.5 -119.5t-153.5 -47.5z" />
<glyph unicode="t" horiz-adv-x="396" d="M272 -13q-167 0 -167 193v278h-80v86l85 6l13 152h97v-152h143v-92h-143v-279q0 -100 80 -100q29 0 59 13l21 -85q-62 -20 -108 -20z" />
<glyph unicode="u" horiz-adv-x="620" d="M248 -13q-168 0 -168 217v346h115v-332q0 -71 21.5 -101.5t70.5 -30.5q38 0 67.5 19t64.5 63v382h115v-550h-94l-9 83h-3q-83 -96 -180 -96z" />
<glyph unicode="v" horiz-adv-x="545" d="M208 0l-195 550h118l94 -296q9 -32 48 -164h4q39 132 48 164l94 296h112l-190 -550h-133z" />
<glyph unicode="w" horiz-adv-x="828" d="M176 0l-149 550h116l73 -298q5 -24 10 -50t11 -57.5t9 -48.5h4q4 17 11 49t13 58t12 49l77 298h107l79 -298q6 -24 18 -76t19 -80h4q4 19 14.5 72.5t17.5 83.5l71 298h108l-142 -550h-138l-70 272q-10 39 -35 159h-5q-20 -106 -35 -160l-67 -271h-133z" />
<glyph unicode="x" horiz-adv-x="526" d="M15 0l178 287l-165 263h124l66 -111q16 -30 52 -92h4l46 92l58 111h120l-165 -276l177 -274h-125l-72 116q-34 62 -57 98h-5q-23 -41 -51 -98l-64 -116h-121z" />
<glyph unicode="y" horiz-adv-x="544" d="M531 550l-202 -583q-35 -97 -85 -147t-132 -50q-39 0 -69 11l22 90q27 -8 40 -8q80 0 115 103l11 38l-218 546h118l102 -283q6 -18 23 -72t27 -83h5l43 155l88 283h112z" />
<glyph unicode="z" horiz-adv-x="490" d="M37 0v62l271 396h-241v92h386v-61l-271 -397h280v-92h-425z" />
<glyph unicode="{" horiz-adv-x="355" d="M259 -171q-72 0 -103.5 33.5t-31.5 119.5q0 41 5 107t5 102q0 37 -22.5 61.5t-74.5 25.5v70q52 1 74.5 25t22.5 60q0 37 -5 103t-5 107q0 86 31.5 119.5t103.5 33.5h56v-63h-26q-42 0 -57 -21t-15 -75q0 -31 3 -95t3 -102q0 -58 -17 -86.5t-56 -38.5v-5q39 -10 56 -39 t17 -86q0 -38 -3 -102t-3 -95q0 -54 15 -74.5t57 -20.5h26v-64h-56z" />
<glyph unicode="|" horiz-adv-x="281" d="M102 -281v1124h77v-1124h-77z" />
<glyph unicode="}" horiz-adv-x="355" d="M40 -171v64h26q42 0 57 20.5t15 74.5q0 31 -2.5 95t-2.5 102q0 57 16.5 86t55.5 39v5q-39 10 -55.5 38.5t-16.5 86.5q0 38 2.5 102t2.5 95q0 54 -15 75t-57 21h-26v63h56q72 0 104 -33.5t32 -119.5q0 -41 -5 -107t-5 -103q0 -36 22 -60t74 -25v-70q-52 -1 -74 -25.5 t-22 -61.5q0 -36 5 -102t5 -107q0 -86 -32 -119.5t-104 -33.5h-56z" />
<glyph unicode="~" horiz-adv-x="570" d="M383 283q-31 0 -60.5 14.5t-49 31.5t-43.5 31.5t-45 14.5q-49 0 -85 -67l-62 45q63 106 149 106q38 0 74.5 -23t67 -46t56.5 -23q48 0 84 67l63 -46q-65 -105 -149 -105z" />
<glyph unicode="&#xac00;" d="M95 731h419q0 -437 -407 -643l-57 79q330 169 361 480h-316v84zM887 470v-86h-137v-460h-103v903h103v-357h137z" />
<glyph unicode="&#xac01;" d="M87 772h420q0 -174 -109.5 -294t-311.5 -174l-42 81q157 40 248.5 119.5t105.5 184.5h-311v83zM162 176v83h594v-337h-103v254h-491zM884 605v-85h-128v-221h-103v528h103v-222h128z" />
<glyph unicode="&#xac04;" d="M86 757h427q0 -177 -111 -302.5t-311 -186.5l-43 82q155 47 247.5 131.5t105.5 191.5h-315v84zM287 238v-214h504v-84h-608v298h104zM755 562h129v-85h-129v-305h-103v654h103v-264z" />
<glyph unicode="&#xac07;" d="M87 772h421q0 -174 -110 -295.5t-312 -175.5l-40 83q157 41 247.5 120.5t103.5 183.5h-310v84zM283 189v-172h495v-83h-598v337h582v-82h-479zM756 615h128v-85h-128v-213h-103v510h103v-212z" />
<glyph unicode="&#xac08;" d="M90 787h422q0 -172 -110.5 -283t-313.5 -156l-38 84q158 33 247 104.5t100 166.5h-307v84zM276 96v-82h510v-83h-611v243h479v76h-481v83h583v-237h-480zM756 634h128v-85h-128v-179h-103v456h103v-192z" />
<glyph unicode="&#xac09;" d="M92 783h421q0 -174 -110 -286.5t-316 -158.5l-37 84q162 35 250 107.5t98 170.5h-306v83zM238 87v-77q171 1 256 19l9 -78q-58 -12 -119.5 -15.5t-188.5 -3.5h-56v228h196v70h-198v77h298v-220h-197zM472 225v82h284v-380h-102v298h-182zM884 629v-85h-128v-196h-103v478 h103v-197h128z" />
<glyph unicode="&#xac0a;" d="M92 783h421q0 -173 -110.5 -283.5t-315.5 -154.5l-37 84q161 33 249 104t99 167h-306v83zM224 91v-77q132 2 205 16l10 -80q-94 -16 -264 -16h-50v230h189v67h-191v78h290v-218h-189zM553 233v-224h113v224h-113zM464 -68v377h292v-377h-292zM884 629v-85h-128v-194h-103 v476h103v-197h128z" />
<glyph unicode="&#xac10;" d="M87 772h421q0 -174 -110 -294.5t-312 -174.5l-40 82q157 42 247.5 120.5t103.5 182.5h-310v84zM281 196v-179h373v179h-373zM179 -66v344h577v-344h-577zM884 617v-85h-128v-215h-103v510h103v-210h128z" />
<glyph unicode="&#xac11;" d="M93 776h417q0 -174 -109 -288t-313 -162l-39 83q160 36 248 110t99 173h-303v84zM653 17v99h-373v-99h373zM653 197v102h102v-365h-577v365h102v-102h373zM884 621v-85h-129v-199h-103v490h103v-206h129z" />
<glyph unicode="&#xac12;" d="M91 775h419q0 -173 -109.5 -287t-313.5 -162l-38 83q159 36 247 110t100 173h-305v83zM367 15v98h-127v-98h127zM708 299v-70q0 -71 38.5 -132.5t112.5 -92.5l-55 -78q-99 43 -146 150q-46 -106 -146 -150l-51 75v-66h-316v354h95v-98h127v98h94v-284q72 33 110.5 94 t38.5 128v72h98zM756 627h128v-85h-128v-207h-103v491h103v-199z" />
<glyph unicode="&#xac13;" d="M92 757h422q0 -177 -110.5 -302.5t-312.5 -185.5l-43 83q157 45 248 129t105 193h-309v83zM528 292v-33q0 -89 81.5 -158.5t210.5 -91.5l-41 -81q-103 18 -182 68t-120 122q-40 -73 -119.5 -122.5t-184.5 -68.5l-41 80q130 22 212 92t82 160v33h102zM773 583h110v-85 h-110v-270h-104v599h104v-244z" />
<glyph unicode="&#xac14;" d="M86 301l-39 83q157 42 247.5 121.5t102.5 183.5h-307v83h420q0 -174 -110.5 -295.5t-313.5 -175.5zM689 287v-54q0 -74 45 -136t130 -90l-52 -75q-125 45 -175 164q-51 -126 -165 -173q-120 47 -167 171q-51 -119 -172 -162l-51 75q82 30 128 93t46 133v54h100v-54 q0 -61 29 -117t86 -93q57 39 87 97t30 113v54h101zM756 612h128v-85h-128v-205h-103v506h103v-216z" />
<glyph unicode="&#xac15;" d="M88 763h422q0 -175 -110 -298.5t-310 -181.5l-42 82q156 45 246 126.5t104 187.5h-310v84zM468 4q91 0 143.5 26t52.5 72q0 47 -52.5 73t-143.5 26t-143.5 -26t-52.5 -73q0 -46 52.5 -72t143.5 -26zM468 283q136 0 217 -48.5t81 -132.5q0 -83 -81 -131t-217 -48t-217 48 t-81 131q0 84 81 132.5t217 48.5zM756 603h128v-85h-128v-223h-103v531h103v-223z" />
<glyph unicode="&#xac16;" d="M90 772h420q0 -174 -109 -290.5t-313 -168.5l-39 82q159 40 248 116t101 178h-308v83zM769 194h-242q8 -65 85 -119.5t194 -71.5l-38 -79q-102 15 -179.5 59.5t-117.5 108.5q-38 -63 -115.5 -107t-180.5 -60l-38 79q118 16 194.5 69.5t84.5 120.5h-243v82h596v-82z M756 607h128v-85h-128v-204h-103v510h103v-221z" />
<glyph unicode="&#xac17;" d="M92 771h419q0 -173 -109 -285.5t-314 -159.5l-38 84q161 35 248.5 108t99.5 170h-306v83zM772 183h-248q8 -65 84.5 -115.5t196.5 -65.5l-37 -77q-103 14 -180.5 55t-117.5 101q-41 -60 -119 -101t-180 -55l-37 77q120 15 197 66t85 115h-252v81h254v100h103v-100h251 v-81zM756 624h128v-85h-128v-208h-103v496h103v-203z" />
<glyph unicode="&#xac19;" d="M91 764h423q0 -172 -108 -281t-313 -152l-41 83q163 32 250.5 102t96.5 165h-308v83zM281 87v-76h499v-77h-602v376h583v-77h-480v-72h469v-74h-469zM756 627h128v-85h-128v-194h-103v478h103v-199z" />
<glyph unicode="&#xac1a;" d="M94 771h419q0 -172 -112.5 -287.5t-313.5 -163.5l-38 84q156 36 247 110.5t102 172.5h-304v84zM393 206v-187h165v187h-165zM660 206v-187h128v-82h-622v82h126v187h-118v83h603v-83h-117zM756 621h128v-85h-128v-206h-103v497h103v-206z" />
<glyph unicode="&#xac1b;" d="M87 778h423q0 -350 -424 -443l-36 82q324 69 347 278h-310v83zM471 -4q156 0 156 57t-156 57t-156 -57t156 -57zM471 183q118 0 185.5 -34.5t67.5 -95.5q0 -62 -67 -96t-186 -34t-186.5 34t-67.5 96q0 61 68 95.5t186 34.5zM523 394v-97h265v-79h-632v79h264v97h103z M756 634h128v-85h-128v-195h-103v472h103v-192z" />
<glyph unicode="&#xac1c;" d="M84 712h355q0 -195 -76.5 -345.5t-256.5 -254.5l-60 73q142 82 211 191.5t80 251.5h-253v84zM721 826h98v-903h-98v466h-103v-424h-97v837h97v-329h103v353z" />
<glyph unicode="&#xac1d;" d="M89 761h354q0 -335 -345 -473l-49 74q262 103 288 316h-248v83zM201 172v83h614v-333h-103v250h-511zM717 826h98v-530h-98v227h-100v-223h-97v509h97v-202h100v219z" />
<glyph unicode="&#xac20;" d="M617 474v-294h-97v629h97v-251h100v268h98v-674h-98v322h-100zM90 739h351q0 -338 -340 -484l-51 76q258 107 284 324h-244v84zM318 28h524v-83h-628v286h104v-203z" />
<glyph unicode="&#xac24;" d="M617 548v-174h-97v435h97v-178h100v196h98v-459h-98v180h-100zM92 773h348q0 -316 -338 -436l-49 75q255 86 279 278h-240v83zM316 16h532v-82h-634v241h500v73h-502v81h603v-231h-499v-82z" />
<glyph unicode="&#xac2c;" d="M90 761h353q0 -168 -83 -285t-255 -189l-51 76q259 102 283 315h-247v83zM316 183v-164h398v164h-398zM214 -63v329h601v-329h-601zM717 826h98v-516h-98v217h-100v-211h-97v493h97v-198h100v215z" />
<glyph unicode="&#xac2d;" d="M92 768h350q0 -328 -338 -464l-51 75q257 101 281 306h-242v83zM714 19v102h-396v-102h396zM714 201v97h101v-361h-599v361h102v-97h396zM717 827h98v-490h-98v196h-100v-190h-97v466h97v-192h100v210z" />
<glyph unicode="&#xac2f;" d="M617 513v-193h-97v489h97v-212h100v230h98v-592h-98v278h-100zM94 747h350q0 -345 -339 -489l-53 74q261 108 286 331h-244v84zM564 279v-34q0 -83 84 -151t214 -87l-40 -81q-105 17 -186.5 66t-122.5 120q-42 -71 -123.5 -120t-186.5 -66l-40 81q130 19 214 87t84 151 v34h103z" />
<glyph unicode="&#xac30;" d="M617 522v-206h-97v493h97v-203h100v220h98v-512h-98v208h-100zM102 291l-51 76q257 101 285 310h-245v84h352q0 -331 -341 -470zM705 279v-51q0 -74 45.5 -135.5t129.5 -89.5l-50 -75q-126 45 -177 164q-46 -124 -164 -172q-119 45 -166 168q-55 -116 -174 -160l-51 75 q83 30 129.5 93t46.5 132v51h100v-51q0 -61 28.5 -116.5t84.5 -92.5q58 39 88 96.5t30 112.5v51h100z" />
<glyph unicode="&#xac31;" d="M617 516v-209h-97v502h97v-209h100v226h98v-549h-98v239h-100zM93 756h351q0 -336 -344 -482l-52 76q262 108 288 322h-243v84zM515 5q97 0 151.5 24t54.5 69q0 43 -55 67.5t-151 24.5t-151 -24.5t-55 -67.5q0 -45 54.5 -69t151.5 -24zM515 269q142 0 225.5 -46 t83.5 -125q0 -80 -83.5 -126t-225.5 -46q-143 0 -226.5 46t-83.5 126q0 79 83.5 125t226.5 46z" />
<glyph unicode="&#xac38;" d="M95 731h419q0 -437 -407 -643l-57 79q329 168 361 480h-316v84zM885 507h-135v-185h135v-85h-135v-313h-103v903h103v-235h135v-85z" />
<glyph unicode="&#xac39;" d="M87 772h420q0 -174 -109.5 -294t-311.5 -174l-42 81q157 40 248.5 119.5t105.5 184.5h-311v83zM162 176v83h594v-337h-103v254h-491zM884 614h-128v-111h128v-84h-128v-120h-103v528h103v-130h128v-83z" />
<glyph unicode="&#xac3c;" d="M86 757h427q0 -177 -111 -303t-311 -186l-43 81q155 47 247.5 131.5t105.5 192.5h-315v84zM287 238v-214h504v-84h-608v298h104zM884 579h-129v-135h129v-85h-129v-187h-103v654h103v-162h129v-85z" />
<glyph unicode="&#xac40;" d="M90 787h422q0 -172 -110.5 -283t-313.5 -156l-38 83q158 34 247 105.5t100 166.5h-307v84zM276 96v-82h510v-83h-611v243h479v76h-481v83h583v-237h-480zM883 641h-127v-94h127v-83h-127v-94h-103v457h103v-103h127v-83z" />
<glyph unicode="&#xac4b;" d="M92 757h422q0 -176 -110.5 -301.5t-312.5 -185.5l-43 83q157 45 248 128.5t105 192.5h-309v83zM528 292v-33q0 -89 81.5 -158.5t210.5 -91.5l-42 -81q-103 19 -181.5 68.5t-119.5 121.5q-40 -72 -119.5 -122t-184.5 -70l-41 81q130 22 212 92.5t82 159.5v33h102zM883 594 h-127v-129h127v-85h-127v-152h-103v598h103v-147h127v-85z" />
<glyph unicode="&#xac4d;" d="M88 763h422q0 -175 -110 -298.5t-310 -181.5l-42 82q156 45 246 126.5t104 187.5h-310v84zM468 4q91 0 143.5 26t52.5 72q0 47 -52.5 73t-143.5 26t-143.5 -26t-52.5 -73q0 -46 52.5 -72t143.5 -26zM468 283q136 0 217 -48.5t81 -132.5q0 -83 -81 -131t-217 -48t-217 48 t-81 131q0 84 81 132.5t217 48.5zM882 608h-126v-109h126v-85h-126v-120h-103v532h103v-133h126v-85z" />
<glyph unicode="&#xac54;" d="M84 712h355q0 -195 -76.5 -345.5t-256.5 -254.5l-60 73q142 82 211 191.5t80 251.5h-253v84zM618 344h103v171h-103v-171zM721 826h98v-903h-98v338h-103v-297h-97v838h97v-204h103v228z" />
<glyph unicode="&#xac58;" d="M717 575h-100v-134h100v134zM617 358v-178h-97v629h97v-151h100v168h98v-674h-98v206h-100zM90 739h351q0 -338 -340 -484l-51 76q258 107 284 324h-244v84zM318 28h524v-83h-628v286h104v-203z" />
<glyph unicode="&#xac5c;" d="M717 632h-100v-89h100v89zM617 464v-90h-97v435h97v-97h100v114h98v-458h-98v96h-100zM92 774h348q0 -316 -338 -438l-49 74q254 88 279 280h-240v84zM316 11h532v-81h-634v240h500v76h-502v81h603v-234h-499v-82z" />
<glyph unicode="&#xac70;" d="M86 731h419q0 -103 -20.5 -191.5t-66.5 -171.5t-125.5 -154t-191.5 -127l-55 80q172 85 256.5 203.5t97.5 276.5h-314v84zM695 826h104v-904h-104v464h-194v85h194v355z" />
<glyph unicode="&#xac71;" d="M106 772h409q0 -173 -108 -293.5t-306 -176.5l-42 82q154 42 243.5 120.5t103.5 183.5h-300v84zM190 177v83h609v-335h-103v252h-506zM696 827h103v-528h-103v213h-175v85h175v230z" />
<glyph unicode="&#xac74;" d="M518 555h178v271h103v-665h-103v309h-178v85zM109 757h414q0 -176 -110 -305.5t-306 -193.5l-45 82q151 49 243.5 136t106.5 197h-303v84zM323 24h499v-84h-602v288h103v-204z" />
<glyph unicode="&#xac77;" d="M696 317v195h-179v85h179v230h103v-510h-103zM105 772h409q0 -173 -108.5 -294t-307.5 -178l-41 80q154 43 243.5 123t103.5 185h-299v84zM315 17h503v-83h-606v337h590v-83h-487v-171z" />
<glyph unicode="&#xac78;" d="M696 368v169h-179v84h179v205h103v-458h-103zM112 787h396q0 -170 -105 -280t-304 -159l-37 81q154 36 239 107t98 168h-287v83zM316 14h508v-83h-611v243h483v75h-485v83h588v-235h-483v-83z" />
<glyph unicode="&#xac7a;" d="M109 785h406q0 -171 -107.5 -282.5t-308.5 -158.5l-36 81q156 35 243 107t98 170h-295v83zM259 94v-80q135 2 210 15l10 -79q-87 -16 -269 -16h-51v233h195v71h-197v78h297v-222h-195zM595 240v-230h114v230h-114zM506 -66v382h293v-382h-293zM696 826h103v-472h-103v179 h-178v83h178v210z" />
<glyph unicode="&#xac80;" d="M105 772h410q0 -173 -108.5 -293.5t-307.5 -176.5l-42 82q155 42 244 120.5t103 183.5h-299v84zM312 196v-179h386v179h-386zM211 -66v344h588v-344h-588zM696 827h103v-512h-103v202h-179v85h179v225z" />
<glyph unicode="&#xac81;" d="M107 773h408q0 -174 -106 -289t-309 -167l-40 81q158 39 245.5 114t99.5 178h-298v83zM697 16v99h-386v-99h386zM697 195v101h102v-363h-591v363h103v-101h386zM695 827h104v-488h-104v185h-179v84h179v219z" />
<glyph unicode="&#xac83;" d="M696 220v274h-178v85h178v247h103v-606h-103zM108 756h406q0 -178 -103.5 -301t-303.5 -186l-43 80q155 48 241 131t99 193h-296v83zM553 292v-35q0 -89 81 -158t211 -91l-41 -81q-104 19 -183 68t-119 121q-41 -73 -121 -122.5t-184 -68.5l-40 81q130 22 211.5 92 t81.5 159v35h103z" />
<glyph unicode="&#xac84;" d="M696 315v203h-177v84h177v225h103v-512h-103zM99 302l-41 82q154 42 243 120.5t103 183.5h-295v84h406q0 -173 -108.5 -293.5t-307.5 -176.5zM702 288v-55q0 -75 45.5 -136.5t130.5 -89.5l-52 -75q-126 45 -176 163q-50 -123 -165 -171q-118 44 -167 170 q-52 -117 -173 -162l-51 75q83 30 129 93t46 133v55h100v-55q0 -61 28.5 -117t85.5 -93q57 39 87 96.5t30 113.5v55h102z" />
<glyph unicode="&#xac85;" d="M696 298v199h-174v85h174v244h103v-528h-103zM108 761h409q0 -176 -107 -296.5t-309 -179.5l-41 83q156 43 244 123t102 187h-298v83zM503 8q93 0 146.5 26t53.5 73q0 46 -53.5 72t-146.5 26q-92 0 -145.5 -26t-53.5 -72q0 -47 53.5 -73t145.5 -26zM503 287 q138 0 220 -48.5t82 -131.5t-82 -131.5t-220 -48.5q-137 0 -219 48.5t-82 131.5t82 131.5t219 48.5z" />
<glyph unicode="&#xac86;" d="M519 596h177v231h103v-511h-103v195h-177v85zM108 772h420q0 -174 -111.5 -291.5t-316.5 -168.5l-38 82q161 38 252 115t103 179h-309v84zM808 190h-247q5 -65 83 -118.5t198 -68.5l-37 -78q-103 15 -181 57.5t-117 103.5q-38 -62 -116 -104t-181 -57l-38 78 q120 15 197.5 68t82.5 119h-243v83h599v-83z" />
<glyph unicode="&#xac89;" d="M696 346v177h-176v84h176v219h103v-480h-103zM106 777h411q0 -173 -106.5 -287t-310.5 -166l-40 81q159 39 246.5 113.5t98.5 175.5h-299v83zM318 12h501v-77h-604v374h588v-76h-485v-72h470v-74h-470v-75z" />
<glyph unicode="&#xac8a;" d="M517 598h179v229h103v-500h-103v187h-179v84zM107 771h410q0 -171 -109.5 -288.5t-306.5 -171.5l-41 81q153 40 242.5 117t103.5 179h-299v83zM416 203v-184h167v184h-167zM685 19h132v-82h-633v82h131v184h-122v82h613v-82h-121v-184z" />
<glyph unicode="&#xac8b;" d="M696 349v190h-180v84h180v203h103v-477h-103zM108 777h398q0 -342 -411 -446l-36 81q158 37 241.5 110t95.5 173h-288v82zM498 -5q146 0 146 56t-146 56q-145 0 -145 -56t145 -56zM498 179q119 0 186.5 -33.5t67.5 -94.5q0 -60 -67.5 -93.5t-186.5 -33.5t-186 33.5 t-67 93.5t67.5 94t185.5 34zM550 292h264v-79h-631v79h263v100h104v-100z" />
<glyph unicode="&#xac8c;" d="M535 467v337h97v-838h-97v418h-166q-82 -161 -264 -270l-59 73q269 160 292 445h-249v83h351q0 -135 -38 -248h133zM724 826h99v-903h-99v903z" />
<glyph unicode="&#xac90;" d="M815 826v-676h-98v676h98zM536 459h-171q-85 -127 -262 -202l-52 76q262 107 288 325h-242v83h348q0 -109 -36 -198h127v265h97v-633h-97v284zM327 24h522v-84h-625v293h103v-209z" />
<glyph unicode="&#xac94;" d="M815 827v-459h-98v459h98zM536 530h-157q-81 -126 -273 -194l-49 74q256 88 280 281h-238v83h347q0 -89 -26 -162h116v196h97v-437h-97v159zM317 16h531v-82h-634v239h498v73h-500v81h603v-231h-498v-80z" />
<glyph unicode="&#xac9c;" d="M536 500h-158q-82 -134 -270 -214l-51 76q256 104 282 315h-240v84h347q0 -93 -28 -177h118v223h97v-492h-97v185zM317 183v-164h397v164h-397zM216 -63v328h599v-328h-599zM717 826h98v-520h-98v520z" />
<glyph unicode="&#xac9d;" d="M536 509h-160q-83 -128 -271 -201l-51 75q258 95 281 298h-235v84h344q0 -95 -27 -173h119v215h97v-471h-97v173zM714 18v98h-396v-98h396zM714 196v98h101v-358h-599v358h102v-98h396zM717 826h98v-497h-98v497z" />
<glyph unicode="&#xac9f;" d="M815 827v-597h-98v597h98zM536 485h-157q-83 -144 -273 -229l-53 76q258 111 284 331h-243v84h350q0 -95 -27 -178h119v239h97v-500h-97v177zM559 279v-34q0 -84 84.5 -151.5t215.5 -86.5l-40 -81q-105 17 -187 66t-124 119q-43 -71 -124.5 -119.5t-187.5 -65.5l-40 81 q131 19 215.5 86.5t84.5 151.5v34h103z" />
<glyph unicode="&#xaca0;" d="M815 826v-517h-98v517h98zM107 287l-51 76q258 103 284 315h-242v83h349q0 -100 -30 -181h119v227h97v-486h-97v175h-160q-87 -134 -269 -209zM705 279v-51q0 -74 45.5 -135.5t129.5 -89.5l-50 -75q-126 45 -177 164q-48 -125 -164 -172q-119 45 -166 168 q-55 -116 -174 -160l-51 75q83 30 129.5 93t46.5 132v51h100v-51q0 -61 28.5 -116.5t84.5 -92.5q58 39 87.5 96t29.5 113v51h101z" />
<glyph unicode="&#xaca1;" d="M815 826v-549h-98v549h98zM536 496h-156q-86 -141 -277 -222l-52 76q262 107 288 322h-244v84h352q0 -95 -28 -177h117v228h97v-500h-97v189zM517 4q96 0 151 24.5t55 68.5t-55 68.5t-151 24.5t-151 -24.5t-55 -68.5t55 -68.5t151 -24.5zM517 268q143 0 226 -46t83 -125 t-83 -125t-226 -46t-226 46t-83 125t83 125t226 46z" />
<glyph unicode="&#xaca8;" d="M695 827h104v-904h-104v335h-233v84h233v161h-219q-82 -270 -375 -417l-55 81q328 166 357 480h-316v84h420q0 -75 -12 -145h200v241z" />
<glyph unicode="&#xaca9;" d="M190 167v82h609v-324h-103v242h-506zM696 827h103v-539h-103v109h-219v84h219v108h-205q-45 -105 -144.5 -180t-244.5 -114l-40 82q156 42 248 122t106 185h-306v83h416q0 -54 -10 -95h180v155z" />
<glyph unicode="&#xacaa;" d="M165 181v84h300v-341h-103v257h-197zM506 181v84h293v-341h-103v257h-190zM696 827h103v-521h-103v97h-219v84h219v108h-205q-45 -105 -144 -179.5t-243 -112.5l-42 81q156 41 247.5 120.5t105.5 183.5h-305v84h415q0 -53 -8 -93h179v148z" />
<glyph unicode="&#xacac;" d="M696 562h-209q-47 -104 -144.5 -181.5t-234.5 -122.5l-44 83q152 48 245 134.5t107 197.5h-305v83h416q0 -58 -12 -110h181v180h103v-670h-103v203h-222v84h222v119zM323 24h499v-84h-602v282h103v-198z" />
<glyph unicode="&#xacaf;" d="M696 603h-208q-44 -108 -143 -184.5t-245 -115.5l-40 81q155 41 245 120t104 184h-304v84h413q0 -47 -7 -85h185v139h103v-509h-103v92h-222v84h222v110zM315 17h503v-83h-606v337h590v-83h-487v-171z" />
<glyph unicode="&#xacb0;" d="M696 623h-209q-84 -206 -388 -275l-36 84q157 34 242.5 104t96.5 167h-290v83h404q0 -47 -7 -83h187v123h103v-458h-103v82h-221v80h221v93zM316 14h508v-83h-611v243h483v75h-485v82h588v-234h-483v-83z" />
<glyph unicode="&#xacb8;" d="M312 194v-177h386v177h-386zM211 -66v342h588v-342h-588zM696 827l103 -1v-513h-103v106h-221v84h221v103h-209q-42 -108 -141.5 -185t-246.5 -119l-41 81q155 42 244.5 121t103.5 184h-301v84h411q0 -51 -6 -82h186v137z" />
<glyph unicode="&#xacb9;" d="M697 16v99h-386v-99h386zM697 195v101h102v-363h-591v363h103v-101h386zM695 827h104v-488h-104v86h-217v84h217v101h-205q-84 -215 -390 -293l-40 82q159 39 247 114t100 177h-300v83h410q0 -37 -5 -79h183v133z" />
<glyph unicode="&#xacbb;" d="M696 582h-210q-82 -220 -379 -313l-43 81q155 47 242 130t100 193h-298v83h407q0 -51 -7 -90h188v160h103v-609h-103v173h-220v84h220v108zM553 291v-34q0 -89 81 -158t211 -91l-41 -81q-104 19 -183 67.5t-119 120.5q-41 -72 -121 -121.5t-184 -68.5l-40 82 q130 21 211.5 90.5t81.5 159.5v34h103z" />
<glyph unicode="&#xacbc;" d="M100 302l-40 81q154 42 244 121t104 184h-299v84h409q0 -43 -8 -86h186v140h103v-511h-103v100h-219v84h219v104h-209q-43 -108 -142 -184.5t-245 -116.5zM702 287v-54q0 -75 45.5 -136.5t130.5 -89.5l-52 -75q-126 45 -176 163q-49 -123 -165 -172q-118 46 -167 170 q-53 -117 -173 -161l-51 75q83 30 129 93t46 133v54h100v-54q0 -61 28.5 -117t85.5 -93q58 39 87.5 96.5t29.5 113.5v54h102z" />
<glyph unicode="&#xacbd;" d="M696 587h-210q-83 -214 -384 -302l-41 82q157 44 245 124t102 187h-300v83h410q0 -45 -8 -90h186v155h103v-531h-103v104h-219v84h219v104zM503 8q93 0 146.5 25.5t53.5 72.5q0 46 -53.5 71.5t-146.5 25.5q-92 0 -145.5 -25.5t-53.5 -71.5q0 -47 53 -72.5t146 -25.5z M503 284q138 0 220 -48t82 -130q0 -83 -82 -131t-220 -48t-219.5 48t-81.5 131q0 82 81.5 130t219.5 48z" />
<glyph unicode="&#xacc1;" d="M696 617h-207q-82 -215 -389 -293l-40 82q160 38 247.5 112.5t98.5 175.5h-300v83h411q0 -46 -7 -81h186v131h103v-481h-103v93h-221v79h221v99zM318 12h501v-77h-604v374h588v-76h-485v-72h470v-74h-470v-75z" />
<glyph unicode="&#xacc4;" d="M542 582v222h96v-837h-96v304h-148v84h148v143h-132q-67 -241 -306 -384l-59 73q268 163 291 445h-247v83h349q0 -73 -10 -133h114zM724 826h99v-903h-99v903z" />
<glyph unicode="&#xacc8;" d="M815 826v-672h-98v672h98zM541 549h-130q-73 -195 -310 -297l-51 77q262 109 286 329h-239v83h346q0 -59 -10 -109h108v176h96v-631h-96v174h-148v84h148v114zM324 24h521v-84h-624v297h103v-213z" />
<glyph unicode="&#xaccc;" d="M815 827v-461h-98v461h98zM541 617h-121q-66 -192 -314 -281l-50 75q256 87 280 280h-237v83h345q0 -40 -6 -78h103v111h96v-437h-96v79h-133v79h133v89zM317 13h531v-82h-634v241h498v74h-500v81h603v-231h-498v-83z" />
<glyph unicode="&#xacd5;" d="M541 599h-124q-65 -196 -312 -290l-52 75q256 93 281 297h-234v84h342q0 -45 -6 -86h105v128h96v-473h-96v94h-129v79h129v92zM714 19v96h-396v-96h396zM714 196v95h101v-354h-599v354h102v-95h396zM717 826h98v-499h-98v499z" />
<glyph unicode="&#xacd7;" d="M815 827v-608h-98v608h98zM536 579h-118q-65 -212 -312 -323l-54 76q259 112 283 332h-241v83h348q0 -44 -6 -86h100v146h97v-510h-97v101h-127v83h127v98zM559 270v-31q0 -81 84.5 -147t215.5 -85l-38 -81q-106 17 -188.5 65t-124.5 117q-43 -70 -125 -117.5t-188 -64.5 l-39 81q131 19 215.5 84.5t84.5 147.5v31h103z" />
<glyph unicode="&#xace0;" d="M675 653v5h-539v84h643v-89q0 -237 -35 -424l-104 11q35 177 35 413zM459 126h408v-85h-816v85h304v318h104v-318z" />
<glyph unicode="&#xace1;" d="M743 460l-102 9q22 103 22 227h-517v83h620v-67q0 -148 -23 -252zM138 147v82h624v-307h-103v225h-521zM476 404h391v-84h-815v84h320v176h104v-176z" />
<glyph unicode="&#xace4;" d="M741 441l-102 11q24 111 24 240h-517v83h620v-64q0 -157 -25 -270zM255 217v-193h531v-84h-634v277h103zM476 385h390v-83h-814v83h320v178h104v-178z" />
<glyph unicode="&#xace7;" d="M741 471l-102 11q24 93 24 222h-517v83h620v-76q0 -147 -25 -240zM254 173v-155h522v-83h-626v321h614v-83h-510zM476 426h390v-83h-814v83h320v160h104v-160z" />
<glyph unicode="&#xace8;" d="M749 521l-102 8q16 91 16 180h-517v83h620v-57q0 -126 -17 -214zM250 95v-82h541v-81h-644v235h518v75h-520v81h623v-228h-518zM476 476h390v-82h-814v82h320v144h104v-144z" />
<glyph unicode="&#xacea;" d="M747 499l-102 11q19 95 19 194h-518v83h620v-58q0 -136 -19 -230zM236 88v-80q137 1 209 14l7 -76q-81 -15 -266 -15h-49v227h190v69h-192v76h291v-215h-190zM568 226v-219h121v219h-121zM481 -69v372h295v-372h-295zM476 455h390v-82h-814v82h320v153h104v-153z" />
<glyph unicode="&#xacec;" d="M746 503l-102 11q19 87 19 195h-517v82h620v-68q0 -135 -20 -220zM687 318v-87q0 -73 38.5 -136.5t114.5 -95.5l-56 -72q-101 45 -146 156q-44 -109 -145 -156l-54 70l4 -52q-80 -14 -257 -14h-49v228h190v69h-192v75h291v-215h-190v-80q130 1 200 14l2 -22 q74 34 113 97.5t39 133.5v87h97zM476 458h391v-82h-815v82h320v154h104v-154z" />
<glyph unicode="&#xacef;" d="M747 512l-102 11q19 95 19 191h-518v82h620v-57q0 -134 -19 -227zM230 93v-79q143 0 220 14l10 -76q-84 -15 -275 -15h-51v228h184v70h-186v75h282v-217h-184zM637 -8q32 0 50.5 13t18.5 37t-19 37t-50 13q-30 0 -49 -13.5t-19 -36.5q0 -24 19 -37t49 -13zM637 160 q69 0 112.5 -32t43.5 -86q0 -55 -43.5 -87t-112.5 -32t-112 32t-43 87q0 54 43 86t112 32zM688 338v-75h143v-76h-383v76h140v75h100zM476 468h391v-83h-815v83h320v153h104v-153z" />
<glyph unicode="&#xacf0;" d="M741 474l-102 12q24 92 24 219h-517v83h620v-75q0 -146 -25 -239zM249 176v-160h415v160h-415zM148 -66v324h618v-324h-618zM476 429h390v-83h-814v83h320v164h104v-164z" />
<glyph unicode="&#xacf1;" d="M742 490l-103 9q24 99 24 210h-517v83h620v-62q0 -141 -24 -240zM661 16v101h-405v-101h405zM661 196v99h103v-361h-611v361h103v-99h405zM476 444h391v-83h-814v83h319v155h104v-155z" />
<glyph unicode="&#xacf3;" d="M744 467l-102 10q22 102 22 225h-518v82h620v-68q0 -147 -22 -249zM507 264v-35q0 -80 82.5 -142.5t216.5 -80.5l-37 -79q-108 16 -190 60.5t-124 111.5q-41 -67 -122.5 -111.5t-189.5 -60.5l-39 79q134 18 216.5 80.5t82.5 142.5v35h104zM476 410h391v-83h-815v83h320 v175h104v-175z" />
<glyph unicode="&#xacf5;" d="M741 467l-101 11q24 93 24 222h-518v83h620v-76q0 -147 -25 -240zM456 2q100 0 156.5 23.5t56.5 66.5q0 42 -56.5 65.5t-156.5 23.5q-101 0 -158.5 -23.5t-57.5 -65.5q0 -43 57.5 -66.5t158.5 -23.5zM456 260q145 0 230.5 -45t85.5 -123t-85.5 -123.5t-230.5 -45.5 q-147 0 -232.5 45t-85.5 124q0 78 85.5 123t232.5 45zM476 413h390v-83h-814v83h320v166h104v-166z" />
<glyph unicode="&#xacf6;" d="M741 487l-101 12q23 88 23 208h-517v84h620v-73q0 -142 -25 -231zM773 187h-258q13 -69 92.5 -119t201.5 -64l-36 -78q-109 14 -191 57t-122 107q-41 -64 -123 -107t-191 -57l-36 78q121 14 200.5 64t93.5 119h-259v82h628v-82zM476 438h390v-84h-814v84h320v156h104 v-156z" />
<glyph unicode="&#xacfc;" d="M524 318l-101 9q25 152 25 321h-358v83h459v-60q0 -193 -25 -353zM322 472v-269q179 8 277 21l5 -76q-210 -35 -551 -35l-11 85q53 0 179 2v272h101zM884 455v-87h-133v-445h-104v903h104v-371h133z" />
<glyph unicode="&#xacfd;" d="M527 463l-101 11q20 97 22 209h-352v84h453v-54q0 -143 -22 -250zM602 419l7 -74q-205 -38 -557 -38l-11 83q116 0 180 2v178h102v-175q180 10 279 24zM160 141v83h602v-298h-104v215h-498zM882 582v-85h-120v-232h-104v562h104v-245h120z" />
<glyph unicode="&#xad00;" d="M528 439l-101 11q20 107 22 224h-353v84h454v-52q0 -150 -22 -267zM603 394l7 -75q-216 -38 -558 -38l-11 84q116 0 180 2v185h102v-182q175 7 280 24zM281 208v-184h510v-84h-614v268h104zM762 540h120v-85h-120v-307h-104v678h104v-286z" />
<glyph unicode="&#xad04;" d="M528 505l-100 11q18 87 20 184h-352v82h453v-48q0 -130 -21 -229zM603 468l7 -72q-212 -35 -558 -35l-10 82q116 0 179 1v155h101v-152q181 8 281 21zM263 87v-78h531v-78h-634v229h499v69h-501v77h604v-219h-499zM762 622h120v-85h-120v-195h-104v484h104v-204z" />
<glyph unicode="&#xad06;" d="M528 504l-100 11q18 88 20 185h-352v82h453v-48q0 -132 -21 -230zM603 468l7 -72q-200 -35 -558 -35l-10 82q116 0 179 1v153h101v-150q162 5 281 21zM230 80v-73q138 1 207 15l7 -76q-80 -15 -265 -15h-49v219h192v64h-194v74h294v-208h-192zM559 211v-203h113v203h-113 zM470 -69v357h292v-357h-292zM882 617v-85h-120v-205h-104v499h104v-209h120z" />
<glyph unicode="&#xad0c;" d="M527 486l-100 9q19 91 21 197h-352v84h453v-52q0 -137 -22 -238zM603 441l7 -75q-194 -35 -558 -37l-11 84q116 0 180 2v158h102v-155q171 7 280 23zM272 166v-147h389v147h-389zM170 -63v310h592v-310h-592zM882 598v-85h-120v-223h-104v537h104v-229h120z" />
<glyph unicode="&#xad0d;" d="M528 498l-100 11q18 87 20 186h-352v83h453v-49q0 -132 -21 -231zM605 459l7 -75q-207 -34 -561 -34l-10 84q117 0 180 1v152h101v-149q183 8 283 21zM660 17v95h-387v-95h387zM660 193v90h102v-349h-591v349h102v-90h387zM882 611v-85h-120v-208h-104v508h104v-215h120z " />
<glyph unicode="&#xad0f;" d="M525 476l-101 9q22 101 24 204h-352v84h453v-50q0 -141 -24 -247zM604 420l6 -74q-212 -37 -558 -37l-11 84q116 0 180 2v173h102v-170q165 5 281 22zM531 253v-29q0 -78 81 -139t214 -78l-38 -81q-109 16 -190 60.5t-121 110.5q-40 -67 -121 -111t-189 -60l-38 81 q133 17 213 77.5t80 139.5v29h109zM762 561h120v-85h-120v-265h-104v616h104v-266z" />
<glyph unicode="&#xad11;" d="M527 477l-100 9q19 96 21 204h-352v84h453v-54q0 -139 -22 -243zM603 429l7 -74q-218 -36 -558 -36l-11 84q117 0 180 1v171h102v-168q171 7 280 22zM463 5q96 0 148.5 22t52.5 64t-52.5 64t-148.5 22q-95 0 -147 -22t-52 -64t52 -64t147 -22zM463 258q142 0 224 -44.5 t82 -122.5t-82 -122.5t-224 -44.5q-141 0 -222.5 44.5t-81.5 122.5t81.5 122.5t222.5 44.5zM762 590h120v-85h-120v-237h-104v559h104v-237z" />
<glyph unicode="&#xad18;" d="M442 333l-94 7q21 144 21 304h-291v83h385v-66q0 -184 -21 -328zM271 474v-252q137 5 224 17l6 -75q-159 -31 -448 -31l-13 85q86 0 136 1v255h95zM727 827h98v-904h-98v446h-91v-402h-96v842h96v-355h91v373z" />
<glyph unicode="&#xad1c;" d="M635 463v-297h-96v643h96v-262h87v279h98v-684h-98v321h-87zM447 442l-96 9q19 105 19 222h-283v84h379v-60q0 -147 -19 -255zM499 388l6 -74q-174 -31 -453 -31l-11 84q89 0 142 1v182h94v-179q156 8 222 17zM300 24h544v-84h-648v271h104v-187z" />
<glyph unicode="&#xad20;" d="M635 529v-191h-96v471h96v-196h87v213h98v-493h-98v196h-87zM450 500l-95 9q15 95 15 184h-283v83h379v-53q0 -128 -16 -223zM498 457l6 -72q-172 -30 -451 -30l-12 81q90 0 142 2v155h94v-152q145 6 221 16zM295 10h554v-79h-656v225h526v65h-528v77h629v-215h-525v-73z " />
<glyph unicode="&#xad29;" d="M447 486l-95 7q18 101 18 200h-283v82h379v-56q0 -134 -19 -233zM498 438l6 -72q-177 -30 -453 -30l-11 81q90 0 143 2v163h94v-160q144 6 221 16zM718 17v91h-419v-91h419zM718 189v88h102v-343h-624v343h103v-88h419zM722 827h98v-514h-98v204h-87v-196h-96v489h96 v-209h87v226z" />
<glyph unicode="&#xad2c;" d="M635 509v-210h-96v510h96v-216h87v234h98v-536h-98v218h-87zM449 473l-94 10q15 96 15 201h-283v83h379v-57q0 -137 -17 -237zM498 424l7 -71q-162 -33 -453 -33l-11 81q89 0 142 1v169h94v-166q144 7 221 19zM702 259v-25q0 -75 45.5 -136t131.5 -88l-51 -76 q-127 45 -177 162q-47 -121 -165 -170q-119 47 -165 168q-54 -118 -177 -160l-50 76q85 28 131 89.5t46 134.5v25h99v-25q0 -60 29 -116t86 -93q57 38 86.5 94.5t29.5 114.5v25h101z" />
<glyph unicode="&#xad2d;" d="M450 462l-95 8q15 100 15 209h-283v82h379v-59q0 -138 -16 -240zM497 415l7 -71q-162 -33 -452 -33l-11 81q89 0 142 1v166h94v-163q143 8 220 19zM503 1q212 0 212 81q0 82 -212 82q-211 0 -211 -82q0 -81 211 -81zM503 243q150 0 233.5 -42t83.5 -119q0 -76 -83.5 -118 t-233.5 -42q-149 0 -233 42t-84 118q0 77 84 119t233 42zM722 826h98v-569h-98v248h-87v-219h-96v523h96v-220h87v237z" />
<glyph unicode="&#xad34;" d="M549 326l-102 11q25 151 25 304h-361v84h463v-56q0 -187 -25 -343zM343 452v-254q181 7 300 22l9 -75q-225 -36 -586 -36l-13 85q123 0 189 1v257h101zM698 828h103v-906h-103v906z" />
<glyph unicode="&#xad35;" d="M543 461l-100 11q20 99 22 211h-347v84h448v-54q0 -145 -23 -252zM634 412l7 -74q-221 -36 -575 -36l-14 84q124 0 191 2v173h100v-171q176 7 291 22zM179 143v83h619v-304h-104v221h-515zM694 827h104v-558h-104v558z" />
<glyph unicode="&#xad38;" d="M798 826v-682h-103v682h103zM547 443l-100 13q22 102 22 222h-356v83h457v-62q0 -149 -23 -256zM634 388l6 -75q-234 -35 -576 -35l-13 85q127 0 195 2v183h100v-180q163 5 288 20zM309 24h513v-84h-617v264h104v-180z" />
<glyph unicode="&#xad3c;" d="M798 826v-488h-103v488h103zM541 503l-100 10q19 87 21 185h-345v82h446v-48q0 -132 -22 -229zM633 467l7 -72q-207 -34 -575 -36l-13 82q125 0 193 2v155h100v-153q175 7 288 22zM292 8h540v-77h-642v225h507v67h-509v77h610v-216h-506v-76z" />
<glyph unicode="&#xad44;" d="M546 480l-102 8q17 90 19 201h-345v83h447v-53q0 -137 -19 -239zM633 434l7 -72q-206 -37 -575 -39l-13 81q55 0 191 2v159h100v-155q181 7 290 24zM296 159v-143h401v143h-401zM195 -66v307h603v-307h-603zM694 827h104v-544h-104v544z" />
<glyph unicode="&#xad45;" d="M547 491l-100 9q19 97 19 196h-348v83h448v-58q0 -133 -19 -230zM633 444l7 -72q-211 -33 -575 -35l-13 82q126 0 194 2v151h99v-148q164 5 288 20zM696 17v91h-401v-91h401zM696 188v91h102v-345h-605v345h102v-91h401zM694 825h104v-508h-104v508z" />
<glyph unicode="&#xad47;" d="M798 827v-625h-104v625h104zM545 470l-100 12q18 88 18 206h-344v83h446v-69q0 -140 -20 -232zM633 420l7 -74q-226 -35 -575 -35l-13 84q124 0 191 2v161h99v-158q166 5 291 20zM548 261v-25q0 -81 81 -145t212 -83l-39 -80q-106 17 -186 63.5t-120 114.5 q-41 -68 -121 -114.5t-187 -63.5l-39 80q131 19 212.5 83t81.5 145v25h105z" />
<glyph unicode="&#xad49;" d="M798 827v-563h-104v563h104zM545 465l-100 12q19 97 19 213h-346v83h447v-64q0 -144 -20 -244zM633 421l7 -72q-215 -35 -575 -35l-13 81q124 0 191 2v161h100v-159q177 7 290 22zM493 3q96 0 149 22t53 63q0 42 -53 64t-149 22q-97 0 -150 -22t-53 -64q0 -41 53 -63 t150 -22zM493 255q143 0 226 -44.5t83 -122.5t-83 -122t-226 -44q-144 0 -227 44t-83 122t83 122.5t227 44.5z" />
<glyph unicode="&#xad50;" d="M679 647v11h-547v84h650v-95q0 -234 -32 -409l-103 12q32 165 32 397zM564 126h303v-85h-816v85h188v292h102v-292h121v292h102v-292z" />
<glyph unicode="&#xad54;" d="M754 442l-102 9q20 104 20 241h-530v84h632v-70q0 -156 -20 -264zM255 213v-190h531v-83h-634v273h103zM572 376h294v-83h-814v83h192v179h102v-179h124v179h102v-179z" />
<glyph unicode="&#xad58;" d="M758 520l-101 11q15 84 15 182h-530v83h632v-63q0 -128 -16 -213zM250 95v-82h541v-81h-644v235h518v75h-520v81h623v-228h-518zM570 472h296v-82h-814v82h194v152h101v-152h122v152h101v-152z" />
<glyph unicode="&#xad61;" d="M750 487l-101 12q21 103 21 211h-530v83h632v-60q0 -143 -22 -246zM661 16v101h-405v-101h405zM661 196v99h103v-361h-611v361h103v-99h405zM566 438h301v-84h-814v84h191v160h102v-160h119v160h101v-160z" />
<glyph unicode="&#xad63;" d="M760 464l-101 11q20 91 20 230h-535v83h637v-80q0 -149 -21 -244zM507 263v-34q0 -80 82.5 -142.5t216.5 -80.5l-38 -80q-108 16 -189.5 61t-123.5 112q-41 -67 -123 -112t-189 -61l-38 80q134 18 216 80.5t82 142.5v34h104zM569 405h298v-84h-816v84h196v177h101v-177 h120v177h101v-177z" />
<glyph unicode="&#xad6c;" d="M868 385v-85h-360v-377h-104v377h-353v85h587q26 126 26 303h-515v83h616v-79q0 -179 -23 -307h126z" />
<glyph unicode="&#xad6d;" d="M869 384h-358v-148h260v-313h-103v230h-534v83h273v148h-356v83h593q22 107 22 235h-513v83h614v-69q0 -146 -20 -249h122v-83z" />
<glyph unicode="&#xad70;" d="M254 227v-203h529v-84h-633v287h104zM747 436h122v-83h-353v-207h-103v207h-362v83h592q23 113 23 262h-512v83h614v-75q0 -159 -21 -270z" />
<glyph unicode="&#xad73;" d="M869 389h-358v-133h259v-83h-518v-157h527v-82h-630v322h258v133h-356v84h594q21 104 21 229h-512v83h613v-69q0 -143 -19 -243h121v-84z" />
<glyph unicode="&#xad74;" d="M869 426h-359v-102h258v-230h-518v-81h541v-81h-644v234h518v77h-520v81h262v102h-356v82h596q19 100 19 201h-512v82h613v-59q0 -131 -17 -224h119v-82z" />
<glyph unicode="&#xad75;" d="M869 421h-359v-121h264v-375h-102v293h-188v80h-46v-215h-200v-75q174 1 264 21l10 -76q-60 -14 -124 -18t-193 -4h-57v225h200v67h-202v77h271v121h-357v83h596q20 101 20 205h-513v83h614v-59q0 -134 -18 -229h120v-83z" />
<glyph unicode="&#xad76;" d="M569 226v-219h120v219h-120zM869 417h-360v-114h267v-372h-295v357h-55v-200h-190v-80q137 1 209 14l7 -76q-81 -15 -266 -15h-49v228h190v68h-192v76h271v114h-356v83h595q21 102 21 209h-513v83h614v-60q0 -136 -19 -232h121v-83z" />
<glyph unicode="&#xad7b;" d="M637 -10q31 0 50 14t19 38q0 25 -19 39t-50 14q-30 0 -49 -14t-19 -39q0 -24 19 -38t49 -14zM637 162q70 0 113 -32.5t43 -87.5t-43 -87t-113 -32q-69 0 -112 32t-43 87t43 87.5t112 32.5zM688 342v-79h143v-75h-384v75h141v79h100zM750 506h119v-83h-364v-122h-91v-213 h-184v-74q143 0 220 14l10 -76q-84 -15 -275 -15h-51v224h183v67h-185v75h270v120h-353v83h597q20 101 20 205h-513v82h614v-55q0 -135 -17 -232z" />
<glyph unicode="&#xad7c;" d="M666 17v156h-415v-156h415zM869 390h-359v-135h257v-321h-617v321h257v135h-356v83h592q21 106 21 232h-513v83h615v-69q0 -145 -20 -246h123v-83z" />
<glyph unicode="&#xad7d;" d="M663 16v102h-410v-102h410zM663 198v105h102v-369h-614v369h102v-105h410zM748 481h122v-84h-362v-142h-104v142h-353v84h594q20 103 20 226h-514v84h616v-69q0 -142 -19 -241z" />
<glyph unicode="&#xad7f;" d="M510 226v-29q0 -70 81.5 -124t213.5 -69l-35 -78q-110 14 -191.5 54t-122.5 102q-41 -61 -122.5 -101.5t-189.5 -54.5l-36 78q131 16 213.5 70.5t82.5 122.5v29h106zM747 477h122v-84h-360v-131h-103v131h-355v84h593q22 112 22 230h-513v83h614v-61q0 -145 -20 -252z " />
<glyph unicode="&#xad81;" d="M669 93q0 43 -55 65.5t-156 22.5t-156 -22.5t-55 -65.5t55 -65.5t156 -22.5t156 22.5t55 65.5zM869 389h-359v-127q125 -8 194 -51.5t69 -117.5q0 -81 -83.5 -126t-231.5 -45q-147 0 -231 45t-84 126q0 74 69.5 117.5t194.5 51.5v127h-356v83h592q23 106 23 235h-512v84 h613v-70q0 -146 -21 -249h123v-83z" />
<glyph unicode="&#xad82;" d="M869 399h-359v-126h263v-82h-258q11 -70 90.5 -121t203.5 -65l-36 -79q-109 14 -191 57t-123 108q-41 -65 -122.5 -108t-190.5 -57l-37 79q123 14 203 65t91 121h-258v82h262v126h-356v83h595q20 111 20 222h-513v84h614v-57q0 -142 -20 -249h122v-83z" />
<glyph unicode="&#xad88;" d="M634 433l6 -73q-115 -18 -262 -26v-367h-103v362q-104 -4 -221 -4l-14 83q253 2 384 9q23 125 23 255h-330v83h432v-53q0 -156 -21 -278q54 3 106 9zM701 826h103v-904h-103v252h-194v82h194v570z" />
<glyph unicode="&#xad89;" d="M274 249v180q-104 -4 -218 -4l-13 84q233 0 386 9q18 94 20 184h-320v83h420v-44q0 -122 -17 -217q64 6 96 10l8 -74q-114 -17 -259 -26v-185h-103zM181 129v83h624v-289h-103v206h-521zM702 826h103v-578h-103v66h-189v76h189v436z" />
<glyph unicode="&#xad8c;" d="M513 338h188v488h103v-682h-103v113h-188v81zM291 202v196q-104 -5 -233 -5l-14 82q253 2 384 11q17 98 21 206h-322v84h424v-34q0 -133 -18 -248q35 3 94 11l8 -73q-127 -21 -241 -28v-202h-103zM276 24h549v-84h-652v276h103v-192z" />
<glyph unicode="&#xad90;" d="M513 434h189v393h103v-510h-103v48h-189v69zM273 318v144q-103 -4 -213 -4l-14 79q251 2 382 11q17 90 19 162h-313v82h414v-29q0 -113 -18 -207q96 11 103 12l6 -71q-118 -21 -263 -29v-150h-103zM292 7h545v-76h-647v215h513v65h-515v75h617v-210h-513v-69z" />
<glyph unicode="&#xad9c;" d="M514 413h188v414h103v-545h-103v54h-188v77zM274 284v162q-104 -4 -218 -4l-13 83q254 2 388 11q16 89 18 172h-320v83h420v-42q0 -116 -15 -204q64 6 94 11l8 -75q-130 -21 -259 -29v-168h-103zM705 251v-24q0 -70 44 -128.5t126 -84.5l-50 -76q-122 42 -171 156 q-48 -120 -159 -164q-113 43 -159 162q-50 -110 -171 -154l-49 76q82 27 126.5 86t44.5 127v24h98v-24q0 -56 27.5 -109.5t80.5 -88.5q55 37 83 90t28 108v24h101z" />
<glyph unicode="&#xad9d;" d="M513 392h188v434h103v-572h-103v63h-188v75zM273 261v167q-103 -4 -215 -4l-13 82q235 0 385 11q19 91 21 185h-320v83h419v-47q0 -121 -17 -214q51 5 98 12l7 -72q-116 -22 -262 -30v-173h-103zM501 2q100 0 153.5 21t53.5 60q0 82 -207 82q-205 0 -205 -82 q0 -39 53 -60t152 -21zM501 245q147 0 229.5 -42.5t82.5 -119.5q0 -76 -82.5 -118t-229.5 -42q-146 0 -228.5 42t-82.5 118q0 77 82.5 119.5t228.5 42.5z" />
<glyph unicode="&#xada4;" d="M504 439l7 -73q-80 -16 -189 -23v-345h-98v338q-85 -4 -175 -4l-10 84q169 0 292 7q21 112 23 223h-267v83h364v-43q0 -142 -20 -256q50 6 73 9zM553 263v545h96v-839h-96v212h-154v82h154zM728 826h98v-902h-98v902z" />
<glyph unicode="&#xadb7;" d="M819 826v-647h-98v647h98zM396 380h153v428h97v-584h-97v81h-153v75zM229 210v206q-87 -4 -178 -4l-10 84q167 0 290 7q16 83 20 177h-256v83h354v-39q0 -120 -18 -214q41 3 76 9l6 -74q-79 -15 -185 -22v-213h-99zM552 222v-19q0 -75 79.5 -129.5t213.5 -70.5l-37 -77 q-107 14 -187 54t-121 101q-42 -61 -123 -101t-189 -54l-37 77q136 16 216.5 70.5t80.5 129.5v19h104z" />
<glyph unicode="&#xadc0;" d="M646 427l7 -77q-148 -19 -264 -24v-354h-104v349q-107 -4 -227 -4l-13 85q228 0 377 8q25 131 27 266h-327v84h428v-43q0 -162 -24 -301q80 6 120 11zM704 826h103v-903h-103v903z" />
<glyph unicode="&#xadc1;" d="M391 402v-159h403v-323h-103v240h-514v83h111v153q-104 -5 -229 -5l-13 82q247 2 377 11q22 104 22 214h-316v84h418v-57q0 -134 -19 -233q101 12 104 12l7 -73q-122 -21 -248 -29zM691 826h103v-539h-103v539z" />
<glyph unicode="&#xadc4;" d="M794 827v-677h-103v677h103zM310 186v189q-107 -6 -247 -6l-14 84q234 0 386 10q19 113 21 221h-326v83h427v-40q0 -139 -18 -256q49 5 95 12l8 -73q-114 -22 -229 -29v-195h-103zM277 24h542v-84h-644v276h102v-192z" />
<glyph unicode="&#xadc8;" d="M794 826v-468h-103v468h103zM296 11h530v-80h-634v234h498v75h-499v79h94v117q-105 -4 -222 -4l-13 82q228 0 380 8q17 95 19 185h-317v82h419v-40q0 -123 -18 -221q70 6 100 10l7 -72q-101 -16 -252 -25v-122h406v-228h-498v-80z" />
<glyph unicode="&#xadd0;" d="M693 16v158h-392v-158h392zM394 397v-141h400v-322h-594v322h90v134q-138 -5 -230 -5l-14 83q250 2 381 11q18 100 18 214h-316v83h418v-61q0 -133 -15 -227q68 6 100 11l7 -74q-114 -20 -245 -28zM691 826h103v-522h-103v522z" />
<glyph unicode="&#xadd1;" d="M285 288v139q-108 -4 -227 -4l-13 82q254 2 384 9q18 87 20 197h-321v83h423v-55q0 -127 -17 -218q11 1 30.5 2.5t36 3t30.5 3.5l7 -73q-115 -19 -250 -25v-144h-103zM692 16v93h-401v-93h401zM692 188v86h102v-340h-605v340h102v-86h401zM691 827h103v-512h-103v512z " />
<glyph unicode="&#xadd3;" d="M792 826v-636h-103v636h103zM277 208v183q-77 -3 -213 -3l-14 83q229 0 379 10q20 108 20 217h-315v83h416v-56q0 -137 -17 -237q51 5 97 12l7 -75q-101 -18 -257 -29v-188h-103zM572 258v-30q0 -81 78.5 -142.5t207.5 -79.5l-39 -79q-218 35 -300 172 q-41 -67 -122 -111.5t-188 -60.5l-40 79q134 18 215.5 79.5t81.5 142.5v30h106z" />
<glyph unicode="&#xaddc;" d="M868 381v-85h-205v-374h-103v374h-208v-374h-102v374h-199v85h578q28 142 28 307h-506v84h608v-63q0 -183 -26 -328h135z" />
<glyph unicode="&#xade0;" d="M246 230v-206h546v-84h-648v290h102zM748 444h121v-84h-216v-208h-101v208h-128v-208h-101v208h-272v84h594q21 109 21 253h-515v84h617v-73q0 -157 -20 -264z" />
<glyph unicode="&#xade4;" d="M555 324v103h-191v-103h191zM869 427h-212v-103h111v-230h-518v-81h541v-81h-644v234h518v77h-520v81h116v103h-210v82h596q19 94 19 201h-512v82h613v-60q0 -131 -17 -223h119v-82z" />
<glyph unicode="&#xadf8;" d="M660 639v14h-522v83h625v-97q0 -248 -34 -439l-104 11q35 178 35 428zM51 134h817v-85h-817v85z" />
<glyph unicode="&#xadf9;" d="M137 164v83h635v-327h-104v244h-531zM747 452h122v-84h-819v84h593q23 115 23 249h-513v84h614v-63q0 -154 -20 -270z" />
<glyph unicode="&#xadfc;" d="M258 244v-220h536v-83h-638v303h102zM746 418h123v-84h-819v84h592q24 118 24 274h-513v83h615v-74q0 -166 -22 -283z" />
<glyph unicode="&#xadff;" d="M252 179v-163h527v-83h-630v329h621v-83h-518zM746 455h123v-83h-819v83h591q24 110 24 244h-512v83h614v-69q0 -152 -21 -258z" />
<glyph unicode="&#xae00;" d="M250 98v-85h541v-81h-644v243h518v81h-520v82h623v-240h-518zM748 498h121v-83h-818v83h594q21 100 21 208h-512v83h613v-60q0 -135 -19 -231z" />
<glyph unicode="&#xae01;" d="M238 86v-77q180 1 264 21l10 -77q-60 -13 -124 -17t-193 -4h-57v228h200v70h-202v77h302v-221h-200zM484 225v82h290v-382h-102v300h-188zM746 478h123v-84h-819v84h593q23 104 23 226h-513v83h614v-64q0 -141 -21 -245z" />
<glyph unicode="&#xae08;" d="M251 178v-162h415v162h-415zM150 -66v326h617v-326h-617zM744 453h125v-84h-818v84h590q25 110 25 245h-512v84h613v-70q0 -151 -23 -259z" />
<glyph unicode="&#xae09;" d="M663 17v105h-408v-105h408zM663 202v108h103v-376h-613v376h102v-108h408zM745 465h124v-84h-818v84h592q23 108 23 239h-512v83h613v-69q0 -146 -22 -253z" />
<glyph unicode="&#xae0b;" d="M507 268v-36q0 -82 82 -145t216 -81l-37 -80q-108 16 -190 61.5t-123 113.5q-41 -68 -122.5 -113.5t-189.5 -61.5l-38 80q134 18 216 81t82 145v36h104zM739 430h127v-84h-815v84h586q25 124 25 268h-512v83h614v-64q0 -163 -25 -287z" />
<glyph unicode="&#xae0d;" d="M458 7q101 0 156 23t55 67q0 43 -55 66t-156 23t-156 -23t-55 -66q0 -44 55 -67t156 -23zM458 270q147 0 231 -46t84 -127q0 -82 -84 -128t-231 -46q-146 0 -230.5 46.5t-84.5 127.5t84.5 127t230.5 46zM744 447h125v-84h-819v84h590q26 113 26 250h-512v84h613v-70 q0 -155 -23 -264z" />
<glyph unicode="&#xae14;" d="M539 315l-102 13q28 137 28 311h-352v83h454v-73q0 -191 -28 -334zM64 140l-12 85q369 0 583 30l6 -76q-220 -39 -577 -39zM685 827h104v-904h-104v904z" />
<glyph unicode="&#xae30;" d="M102 731h428q0 -214 -98 -376.5t-320 -270.5l-55 82q340 163 367 481h-322v84zM693 826h103v-903h-103v903z" />
<glyph unicode="&#xae31;" d="M109 772h415q0 -176 -111 -296.5t-315 -175.5l-40 81q159 42 250.5 121.5t105.5 185.5h-305v84zM186 176v83h609v-337h-103v254h-506zM692 827h103v-528h-103v528z" />
<glyph unicode="&#xae34;" d="M794 826v-656h-103v656h103zM114 758h418q0 -178 -111.5 -304.5t-315.5 -188.5l-41 82q158 47 251 132t106 195h-307v84zM305 23h510v-83h-613v284h103v-201z" />
<glyph unicode="&#xae37;" d="M801 827v-512h-104v512h104zM105 772h413q0 -174 -108.5 -294t-310.5 -175l-41 80q157 42 246.5 120.5t103.5 183.5h-303v85zM316 17h502v-83h-605v337h589v-82h-486v-172z" />
<glyph unicode="&#xae38;" d="M795 826v-458h-103v458h103zM111 787h414q0 -344 -424 -437l-36 83q164 34 250.5 103t96.5 167h-301v84zM308 13h514v-82h-617v241h487v76h-489v80h592v-231h-487v-84z" />
<glyph unicode="&#xae3a;" d="M110 783h415q0 -172 -109 -282.5t-314 -156.5l-37 82q160 34 248 105t99 170h-302v82zM260 91v-79q137 2 211 16l8 -79q-87 -16 -267 -16h-50v231h197v68h-199v78h297v-219h-197zM592 234v-225h114v225h-114zM505 -67v377h290v-377h-290zM691 826h104v-474h-104v474z" />
<glyph unicode="&#xae40;" d="M107 772h417q0 -175 -111.5 -295t-315.5 -172l-39 81q158 40 250 119.5t106 183.5h-307v83zM307 196v-179h387v179h-387zM205 -66v344h590v-344h-590zM692 827h103v-508h-103v508z" />
<glyph unicode="&#xae41;" d="M109 777h416q0 -351 -426 -450l-37 83q165 36 252 108.5t99 174.5h-304v84zM693 17v99h-386v-99h386zM693 197v102h102v-365h-590v365h102v-102h386zM691 826h104v-491h-104v491z" />
<glyph unicode="&#xae43;" d="M794 826v-602h-104v602h104zM111 757h416q0 -179 -109.5 -303.5t-314.5 -185.5l-40 80q159 48 250 132t105 194h-307v83zM550 281v-32q0 -88 81 -155.5t211 -87.5l-39 -81q-106 19 -186 68.5t-120 121.5q-40 -73 -120.5 -122t-188.5 -68l-39 81q131 19 212.5 86.5 t81.5 156.5v32h107z" />
<glyph unicode="&#xae45;" d="M793 826v-537h-104v537h104zM108 763h415q0 -175 -112.5 -299t-311.5 -181l-42 80q155 45 249 127t108 189h-306v84zM492 5q96 0 149.5 25.5t53.5 71.5t-53.5 71t-149.5 25t-149.5 -25t-53.5 -71t53.5 -71.5t149.5 -25.5zM492 280q142 0 224 -47.5t82 -130.5 q0 -84 -82 -131.5t-224 -47.5t-223.5 47.5t-81.5 131.5q0 83 82 130.5t223 47.5z" />
<glyph unicode="&#xae46;" d="M793 827v-505h-104v505h104zM107 770h418q0 -174 -111 -290.5t-316 -168.5l-37 82q159 39 249.5 115.5t103.5 178.5h-307v83zM803 192h-248q2 -67 80.5 -120t204.5 -69l-35 -78q-105 13 -183.5 54t-118.5 102q-40 -60 -118.5 -101t-181.5 -55l-35 78q124 15 202 69 t80 120h-244v83h597v-83z" />
<glyph unicode="&#xae4a;" d="M794 827v-491h-103v491h103zM113 766h421q0 -172 -111.5 -286.5t-314.5 -162.5l-41 81q159 35 251 110.5t105 174.5h-310v83zM416 208v-189h174v189h-174zM691 19h125v-82h-626v82h124v189h-115v82h607v-82h-115v-189z" />
<glyph unicode="&#xae4c;" d="M75 731h244q0 -193 -42 -340.5t-155 -269.5l-82 57q92 98 133.5 211t48.5 257h-147v85zM350 731h217q0 -99 -7 -179t-26 -168.5t-58 -170t-97 -152.5l-83 58q91 110 129.5 238t44.5 289h-120v85zM892 462v-85h-128v-453h-103v902h103v-364h128z" />
<glyph unicode="&#xae4d;" d="M374 304l-72 60q82 65 122 140t48 176h-119v83h217q0 -150 -44 -260.5t-152 -198.5zM78 763h240q0 -142 -46.5 -241t-158.5 -178l-65 65q82 55 122 118.5t50 152.5h-142v83zM163 165v83h593v-328h-103v245h-490zM884 590v-85h-128v-217h-103v538h103v-236h128z" />
<glyph unicode="&#xae4e;" d="M374 316l-73 59q82 64 122 137.5t49 173.5h-120v84h218q0 -149 -44 -258t-152 -196zM77 770h240q0 -142 -46.5 -240.5t-157.5 -177.5l-66 64q81 55 121.5 118t50.5 152h-142v84zM134 180v83h294v-340h-102v257h-192zM470 180v83h286v-340h-102v257h-184zM884 607v-85 h-128v-215h-103v520h103v-220h128z" />
<glyph unicode="&#xae50;" d="M366 256l-68 64q85 72 125.5 155t48.5 193h-121v84h219q0 -160 -45 -280t-159 -216zM78 752h239q0 -150 -46 -259t-157 -197l-67 65q82 64 123 136t50 171h-142v84zM281 220v-196h509v-84h-612v280h103zM756 546h128v-85h-128v-296h-103v662h103v-281z" />
<glyph unicode="&#xae54;" d="M374 359l-71 60q80 57 119.5 122t48.5 155h-122v83h220q0 -141 -44.5 -240.5t-150.5 -179.5zM74 779h240q0 -134 -47 -224t-153 -165l-67 64q77 51 117 106.5t51 135.5h-141v83zM272 96v-81h518v-81h-619v237h484v76h-486v80h587v-231h-484zM756 639h128v-85h-128v-187 h-103v459h103v-187z" />
<glyph unicode="&#xae56;" d="M374 349l-71 60q81 58 120 124.5t48 159.5h-123v84h221q0 -145 -43.5 -246t-151.5 -182zM74 777h241q0 -134 -47 -224t-153 -165l-67 65q77 50 116.5 105t50.5 135h-141v84zM226 89v-79q131 2 205 15l10 -78q-82 -15 -265 -15h-50v229h189v68h-191v78h291v-218h-189z M555 230v-222h111v222h-111zM466 -68v375h290v-375h-290zM884 635v-85h-128v-198h-103v474h103v-191h128z" />
<glyph unicode="&#xae5c;" d="M374 308l-74 59q83 67 123 142.5t48 177.5h-121v83h218q0 -151 -43.5 -262t-150.5 -200zM77 770h241q0 -143 -46.5 -242.5t-157.5 -180.5l-67 64q82 57 122 121t50 155h-142v83zM281 184v-168h374v168h-374zM179 -66v332h577v-332h-577zM884 615v-85h-128v-222h-103v519 h103v-212h128z" />
<glyph unicode="&#xae5d;" d="M377 320l-74 59q81 65 120 138t48 173h-120v84h217q0 -150 -43 -258.5t-148 -195.5zM78 774h240q0 -142 -46.5 -240t-157.5 -177l-66 66q81 55 121.5 117t49.5 150h-141v84zM654 17v97h-374v-97h374zM654 194v98h102v-359h-578v359h102v-98h374zM884 627v-85h-128v-209 h-103v494h103v-200h128z" />
<glyph unicode="&#xae5f;" d="M373 292l-73 60q83 66 123 143t48 180h-122v84h219q0 -153 -43.5 -264.5t-151.5 -202.5zM75 759h240q0 -145 -44.5 -245t-153.5 -181l-68 63q81 58 120 122.5t48 156.5h-142v84zM528 267v-21q0 -86 81 -152.5t212 -85.5l-40 -81q-104 17 -184 64.5t-120 117.5 q-41 -70 -120.5 -117.5t-183.5 -64.5l-41 81q131 19 212 85.5t81 152.5v21h103zM756 581h128v-85h-128v-273h-103v603h103v-245z" />
<glyph unicode="&#xae60;" d="M377 309l-74 60q82 65 121.5 139.5t47.5 175.5h-119v84h218q0 -151 -43.5 -261t-150.5 -198zM117 348l-66 66q82 55 122 118t49 152h-142v84h241q0 -143 -46 -241.5t-158 -178.5zM689 275v-43q0 -74 45 -136t130 -90l-52 -75q-124 43 -175 163q-49 -123 -166 -172 q-119 46 -166 170q-53 -118 -173 -161l-51 75q83 31 128.5 93.5t45.5 132.5v43h100v-43q0 -62 28.5 -117.5t85.5 -92.5q58 39 88.5 96.5t30.5 113.5v43h101zM756 614h128v-85h-128v-213h-103v511h103v-213z" />
<glyph unicode="&#xae61;" d="M375 312l-74 60q82 64 122 139t48 176h-120v83h217q0 -151 -43.5 -260.5t-149.5 -197.5zM78 770h240q0 -144 -46.5 -243.5t-157.5 -179.5l-66 64q81 56 121.5 120.5t50.5 155.5h-142v83zM465 5q95 0 147 24t52 68t-52 68t-147 24t-147 -24t-52 -68t52 -68t147 -24z M465 271q140 0 220.5 -46.5t80.5 -127.5t-80.5 -127t-220.5 -46t-220.5 46t-80.5 127t81 127.5t220 46.5zM756 611h128v-85h-128v-229h-103v530h103v-216z" />
<glyph unicode="&#xae65;" d="M374 354l-72 60q80 57 119.5 122t49.5 156h-122v83h220q0 -142 -44.5 -241.5t-150.5 -179.5zM73 775h241q0 -134 -47 -224.5t-153 -165.5l-67 65q76 50 116 105.5t52 136.5h-142v83zM283 83v-75h498v-74h-601v364h582v-74h-479v-70h469v-71h-469zM756 627h128v-85h-128 v-200h-103v485h103v-200z" />
<glyph unicode="&#xae68;" d="M70 720h203q0 -176 -31.5 -318t-116.5 -261l-80 46q71 96 102.5 204.5t38.5 244.5h-116v84zM302 720h184q0 -195 -29.5 -352t-118.5 -286l-82 45q76 106 106.5 230.5t34.5 278.5h-95v84zM738 828h98v-905h-98v464h-91v-422h-97v843h97v-337h91v357z" />
<glyph unicode="&#xae69;" d="M334 298l-81 54q71 69 102.5 146.5t38.5 183.5h-93v83h188q0 -154 -32.5 -263.5t-122.5 -203.5zM71 765h205q0 -142 -33 -237.5t-123 -179.5l-74 56q67 61 97 124.5t38 153.5h-110v83zM196 172v83h629v-333h-103v250h-526zM727 826h98v-530h-98v227h-88v-222h-97v510h97 v-204h88v219z" />
<glyph unicode="&#xae6c;" d="M639 476v-290h-97v624h97v-250h88v266h98v-667h-98v317h-88zM338 276l-81 51q69 74 100 154.5t37 188.5h-93v84h187q0 -156 -31.5 -268.5t-118.5 -209.5zM70 754h207q0 -147 -32.5 -246t-123.5 -186l-74 56q67 63 97.5 130t37.5 162h-112v84zM308 24h543v-84h-646v289 h103v-205z" />
<glyph unicode="&#xae70;" d="M639 545v-180h-97v446h97v-182h88v197h98v-466h-98v185h-88zM335 350l-77 56q67 61 97.5 127.5t37.5 159.5h-93v83h189q0 -143 -32 -242t-122 -184zM73 776h203q0 -132 -32.5 -218t-122.5 -164l-71 59q64 53 94.5 107.5t38.5 132.5h-110v83zM326 15h529v-81h-633v235h499 v72h-501v81h605v-229h-499v-78z" />
<glyph unicode="&#xae78;" d="M342 309l-83 53q68 70 98 145.5t36 180.5h-92v84h187q0 -154 -30 -262t-116 -201zM69 772h207q0 -142 -32.5 -236t-121.5 -178l-74 57q65 59 95 121t38 152h-112v84zM320 186v-169h404v169h-404zM219 -66v334h606v-334h-606zM727 827h98v-518h-98v213h-88v-207h-97v496 h97v-205h88v221z" />
<glyph unicode="&#xae79;" d="M351 331l-83 50q66 68 94 140.5t34 174.5h-92v84h185q0 -152 -27.5 -255t-110.5 -194zM73 780h207q0 -141 -33 -234.5t-123 -176.5l-75 57q67 59 97.5 120t38.5 150h-112v84zM723 17v103h-401v-103h401zM723 201v95h102v-363h-605v363h102v-95h401zM727 826h98v-492h-98 v199h-87v-193h-97v469h97v-192h87v209z" />
<glyph unicode="&#xae7b;" d="M640 516v-201h-97v494h97v-209h87v226h98v-587h-98v277h-87zM338 279l-80 51q69 74 99.5 155.5t36.5 192.5h-94v83h188q0 -158 -31 -271t-119 -211zM71 761h205q0 -146 -31 -244t-119 -185l-76 56q66 62 95.5 128.5t37.5 161.5h-112v83zM574 279v-34q0 -83 84 -151 t214 -87l-39 -81q-105 17 -187 66t-124 120q-42 -71 -123.5 -120t-185.5 -66l-40 81q130 19 213.5 87t83.5 151v34h104z" />
<glyph unicode="&#xae7c;" d="M640 522v-206h-97v494h97v-204h87v219h98v-517h-98v214h-87zM342 311l-80 53q66 69 96 142t36 174h-94v83h187q0 -150 -30 -255t-115 -197zM123 354l-74 57q65 58 95 119.5t38 149.5h-112v83h207q0 -140 -32.5 -233.5t-121.5 -175.5zM716 272v-41q0 -74 45 -135t129 -89 l-50 -75q-126 45 -177 164q-48 -125 -164 -172q-118 44 -167 168q-52 -116 -174 -161l-51 76q83 30 129.5 92.5t46.5 131.5v41h100v-41q0 -61 28.5 -116.5t85.5 -91.5q57 38 87 95.5t30 112.5v41h102z" />
<glyph unicode="&#xae7d;" d="M641 511v-202h-96v500h96v-214h87v231h98v-548h-98v233h-87zM338 297l-80 53q68 69 98 143.5t37 177.5h-92v83h186q0 -151 -31 -257.5t-118 -199.5zM71 754h207q0 -141 -32.5 -236t-121.5 -178l-74 57q66 59 96 122t37 152h-112v83zM524 2q97 0 152 24t55 68q0 43 -55 67 t-152 24q-98 0 -153.5 -24t-55.5 -67q0 -44 55.5 -68t153.5 -24zM524 264q143 0 227 -45.5t84 -124.5q0 -80 -84 -125.5t-227 -45.5q-145 0 -229 45.5t-84 125.5q0 79 84.5 124.5t228.5 45.5z" />
<glyph unicode="&#xae84;" d="M75 731h244q0 -193 -42 -340.5t-155 -269.5l-82 57q92 97 133.5 210t48.5 258h-147v85zM350 731h217q0 -99 -7 -179t-26 -168.5t-58 -170t-97 -152.5l-83 58q91 110 129.5 237.5t44.5 289.5h-120v85zM891 507h-127v-184h127v-85h-127v-314h-103v902h103v-234h127v-85z " />
<glyph unicode="&#xae85;" d="M374 304l-72 59q82 66 122 141t48 176h-119v83h217q0 -150 -44 -260.5t-152 -198.5zM78 763h240q0 -142 -46.5 -241t-158.5 -178l-65 65q81 55 121.5 118.5t50.5 152.5h-142v83zM163 165v83h593v-328h-103v245h-490zM880 615h-124v-107h124v-85h-124v-135h-103v539h103 v-127h124v-85z" />
<glyph unicode="&#xae8c;" d="M374 358l-71 61q80 56 119.5 121.5t48.5 155.5h-122v83h220q0 -142 -44.5 -241.5t-150.5 -179.5zM74 779h240q0 -134 -47 -224.5t-153 -164.5l-67 64q77 50 117 106t51 136h-141v83zM272 96v-81h518v-81h-619v237h484v76h-486v80h587v-231h-484zM879 644h-123v-87h123 v-83h-123v-107h-103v460h103v-101h123v-82z" />
<glyph unicode="&#xaebc;" d="M75 731h244q0 -193 -42 -340.5t-155 -270.5l-82 58q92 97 133.5 210.5t48.5 257.5h-147v85zM691 826h104v-902h-104v474h-156q-42 -194 -158 -337l-83 58q91 110 129.5 238t44.5 289h-120v85h217q0 -136 -14 -249h140v344z" />
<glyph unicode="&#xaebd;" d="M78 766h239q0 -144 -45.5 -244t-157.5 -181l-66 64q82 57 122 121.5t49 156.5h-141v83zM184 165v83h611v-326h-104v243h-507zM691 827h104v-539h-104v224h-162q-47 -121 -155 -211l-73 59q82 67 121.5 144t47.5 179h-120v83h218q0 -90 -15 -170h138v231z" />
<glyph unicode="&#xaebe;" d="M78 770h239q0 -143 -45.5 -242t-156.5 -179l-66 64q81 56 121 119.5t49 153.5h-141v84zM158 178v84h299v-339h-102v255h-197zM497 178v84h298v-339h-103v255h-195zM691 827h104v-526h-104v214h-163q-46 -116 -154 -204l-72 58q81 66 120.5 141t47.5 176h-123v84h221 q0 -95 -16 -172h139v229z" />
<glyph unicode="&#xaec0;" d="M375 263l-70 63q84 70 123 152.5t48 191.5h-120v84h216q0 -108 -17 -193h136v263h104v-661h-104v314h-161q-47 -121 -155 -214zM83 754h239q0 -149 -45 -256t-157 -192l-67 64q82 62 122 133t49 167h-141v84zM304 24h514v-84h-617v279h103v-195z" />
<glyph unicode="&#xaec4;" d="M379 360l-70 61q79 58 117 123.5t46 155.5h-122v84h219q0 -88 -15 -160h137v202h103v-463h-103v178h-164q-45 -102 -148 -181zM81 784h238q0 -132 -46.5 -221t-151.5 -163l-67 64q76 51 115.5 104.5t50.5 131.5h-139v84zM303 10h517v-81h-620v239h491v73h-493v82h596 v-231h-491v-82z" />
<glyph unicode="&#xaecc;" d="M78 769h239q0 -142 -46 -240.5t-157 -178.5l-65 64q81 56 121 119t49 153h-141v83zM300 194v-177h393v177h-393zM199 -66v342h596v-342h-596zM691 826h104v-510h-104v204h-161q-44 -117 -152 -208l-74 59q80 65 119 139.5t47 175.5h-119v83h217q0 -93 -14 -166h137v223z " />
<glyph unicode="&#xaecd;" d="M84 777h237q0 -141 -46 -239t-155 -177l-67 65q81 55 120.5 116.5t49.5 150.5h-139v84zM693 17v101h-386v-101h386zM693 198v101h102v-365h-591v365h103v-101h386zM691 826h104v-485h-104v183h-160q-44 -112 -148 -199l-73 58q79 64 117 137t46 173h-120v84h218 q0 -92 -15 -170h135v219z" />
<glyph unicode="&#xaecf;" d="M379 295l-72 59q81 66 119.5 142.5t46.5 179.5h-120v84h217q0 -101 -17 -179h138v245h104v-613h-104v284h-163q-47 -115 -149 -202zM83 760h237q0 -144 -45.5 -244.5t-156.5 -180.5l-67 64q82 58 122 122t49 155h-139v84zM548 283v-29q0 -87 81 -155.5t211 -90.5l-40 -81 q-104 19 -183 68t-120 120q-41 -72 -120.5 -121t-183.5 -68l-40 81q131 21 211.5 89.5t80.5 157.5v29h103z" />
<glyph unicode="&#xaed0;" d="M378 315l-74 60q81 64 119.5 137.5t46.5 173.5h-120v84h218q0 -94 -16 -171h139v227h103v-517h-103v206h-164q-44 -112 -149 -200zM114 350l-65 64q81 56 121 119t49 153h-141v84h239q0 -143 -46 -241.5t-157 -178.5zM697 279v-46q0 -74 45.5 -136.5t130.5 -89.5l-51 -75 q-127 45 -177 164q-47 -124 -163 -173q-119 46 -168 170q-53 -117 -173 -161l-51 75q83 30 129.5 93t46.5 133v46h99v-46q0 -61 29 -117t86 -93q57 39 86.5 96.5t29.5 113.5v46h101z" />
<glyph unicode="&#xaed1;" d="M375 312l-72 61q81 64 120 138t47 175h-120v83h218q0 -102 -18 -178h141v235h104v-541h-104v223h-167q-45 -108 -149 -196zM78 769h239q0 -143 -46.5 -242.5t-157.5 -177.5l-66 64q82 56 122 119.5t50 153.5h-141v83zM497 3q94 0 147.5 25.5t53.5 71.5q0 45 -53.5 70.5 t-147.5 25.5t-148 -25.5t-54 -70.5q0 -46 53.5 -71.5t148.5 -25.5zM497 276q139 0 221 -47.5t82 -128.5q0 -82 -82 -129.5t-221 -47.5t-221.5 47.5t-82.5 129.5q0 81 82.5 128.5t221.5 47.5z" />
<glyph unicode="&#xaed8;" d="M70 721h201q0 -180 -31 -326t-115 -269l-79 45q72 100 102 212t36 254h-114v84zM558 479v326h97v-838h-97v428h-109q-34 -189 -123 -321l-80 45q77 109 105.5 235.5t31.5 282.5h-83v84h171q0 -142 -11 -242h98zM729 827h98v-905h-98v905z" />
<glyph unicode="&#xaed9;" d="M332 301l-81 52q69 70 100 147.5t37 181.5h-89v83h182q0 -92 -10 -163h86v205h97v-507h-97v218h-103q-35 -123 -122 -217zM74 765h202q0 -138 -32.5 -233.5t-117.5 -179.5l-75 56q64 61 94.5 123t37.5 151h-109v83zM192 170v83h631v-331h-103v248h-528zM725 826h98v-533 h-98v533z" />
<glyph unicode="&#xaedc;" d="M824 825v-666h-99v666h99zM330 270l-80 52q70 75 100.5 157t36.5 192h-89v84h182q0 -108 -12 -185h90v237h97v-630h-97v309h-108q-33 -120 -120 -216zM75 755h201q0 -146 -31.5 -246t-119.5 -187l-76 54q66 63 96.5 131t38.5 164h-109v84zM310 30h535v-83h-638v278h103 v-195z" />
<glyph unicode="&#xaee8;" d="M331 307l-79 51q68 70 99 147.5t37 181.5h-89v84h181q0 -100 -11 -174h88v210h97v-495h-97v201h-107q-34 -114 -119 -206zM74 771h202q0 -142 -32 -238t-119 -180l-75 54q66 61 96 125t37 155h-109v84zM321 186v-169h400v169h-400zM219 -66v334h604v-334h-604zM725 826 h98v-520h-98v520z" />
<glyph unicode="&#xaeeb;" d="M823 825v-597h-98v597h98zM333 287l-80 51q68 73 98 152.5t36 187.5h-88v84h181q0 -103 -10 -169h86v214h97v-500h-97v202h-102q-33 -126 -121 -222zM74 762h202q0 -144 -32 -241t-119 -182l-76 54q66 62 96.5 127.5t37.5 157.5h-109v84zM570 277v-30q0 -83 84 -149.5 t214 -85.5l-40 -80q-105 17 -187 66t-123 119q-42 -70 -124 -119t-187 -66l-40 80q129 19 213 85.5t84 149.5v30h106z" />
<glyph unicode="&#xaeed;" d="M823 826v-546h-98v546h98zM335 300l-80 51q68 71 97.5 148.5t35.5 183.5h-89v83h181q0 -99 -11 -173h88v214h97v-497h-97v200h-105q-34 -120 -117 -210zM75 766h201q0 -143 -31.5 -238.5t-118.5 -178.5l-76 55q66 61 96 124.5t37 154.5h-108v83zM508 3q104 0 160.5 23 t56.5 66t-56.5 65.5t-160.5 22.5q-105 0 -161.5 -22.5t-56.5 -65.5t56.5 -66t161.5 -23zM508 261q151 0 237 -44.5t86 -124.5q0 -81 -85.5 -125.5t-237.5 -44.5t-238 44.5t-86 125.5q0 80 86 124.5t238 44.5z" />
<glyph unicode="&#xaef4;" d="M75 730h245q0 -187 -44 -334.5t-155 -268.5l-81 58q89 98 131.5 209.5t50.5 251.5h-147v84zM520 350h171v158h-139q-10 -75 -32 -158zM691 826h104v-903h-104v344h-199q-41 -108 -116 -202l-84 56q89 110 128.5 238.5t46.5 286.5h-119v84h216q0 -82 -5 -138h132v234z" />
<glyph unicode="&#xaef8;" d="M374 264l-71 62q82 70 120 152.5t46 191.5h-116v84h212q0 -60 -4 -101h130v171h104v-663h-104v193h-156v83h156v133h-141q-35 -184 -176 -306zM83 754h238q0 -149 -44.5 -255.5t-155.5 -192.5l-67 64q81 61 120.5 132t48.5 168h-140v84zM304 24h514v-84h-617v278h103 v-194z" />
<glyph unicode="&#xaefc;" d="M379 363l-71 60q77 57 114.5 122t46.5 155h-120v84h218q0 -40 -3 -78h127v120h103v-463h-103v88h-148v79h148v97h-138q-35 -156 -174 -264zM81 784h238q0 -132 -46.5 -220t-151.5 -162l-67 64q76 50 115.5 103t50.5 131h-139v84zM303 10h517v-81h-620v239h491v73h-493v82 h596v-231h-491v-82z" />
<glyph unicode="&#xaf07;" d="M378 293l-73 58q80 68 118 145t46 180h-117v84h215q0 -55 -4 -95h128v161h104v-617h-104v173h-153v84h153v115h-141q-38 -172 -172 -288zM83 760h237q0 -145 -45.5 -245t-156.5 -181l-67 64q82 59 122 123t49 155h-139v84zM548 271v-24q0 -87 80.5 -153.5t211.5 -86.5 l-40 -80q-105 18 -183.5 65.5t-119.5 117.5q-41 -71 -120.5 -119t-184.5 -65l-39 80q131 19 211.5 86.5t80.5 154.5v24h103z" />
<glyph unicode="&#xaf08;" d="M376 316l-73 58q79 65 117 138.5t46 173.5h-116v84h214q0 -50 -4 -87h131v142h103v-516h-103v97h-152v84h152v109h-142q-35 -168 -173 -283zM114 349l-65 65q81 56 121 119t49 153h-141v84h239q0 -143 -46 -242t-157 -179zM697 278v-46q0 -74 45.5 -136t130.5 -90 l-51 -74q-126 43 -177 164q-48 -126 -164 -173q-118 46 -167 170q-53 -118 -173 -161l-51 74q83 30 129.5 93.5t46.5 132.5v46h99v-46q0 -61 29 -116.5t85 -92.5q58 39 87.5 96t29.5 113v46h101z" />
<glyph unicode="&#xaf0d;" d="M368 332l-73 58q81 63 120 135t47 171h-112v83h209q0 -45 -3 -84h135v132h104v-487h-104v88h-154v82h154v104h-146q-35 -170 -177 -282zM83 779h236q0 -141 -45 -237t-155 -174l-67 64q81 54 120.5 115.5t48.5 148.5h-138v83zM308 11h505v-77h-608v367h592v-76h-489v-69 h476v-74h-476v-71z" />
<glyph unicode="&#xaf10;" d="M70 721h201q0 -181 -31 -326.5t-115 -268.5l-79 45q72 101 102 212.5t36 253.5h-114v84zM441 356h118v146h-97q-4 -72 -21 -146zM559 586v219h97v-838h-97v305h-140q-33 -108 -93 -198l-80 45q77 109 105.5 235t31.5 283h-83v84h171q0 -66 -3 -135h91zM729 827h98v-905 h-98v905z" />
<glyph unicode="&#xaf2c;" d="M745 275l-102 12q35 179 35 369h-213v83h314v-61q0 -220 -34 -403zM336 271l-102 17q57 188 61 368h-182v83h284v-39q0 -216 -61 -429zM526 133h341v-84h-818v84h375v283h102v-283z" />
<glyph unicode="&#xaf2d;" d="M753 472l-99 12q24 110 26 221h-213v83h314v-47q0 -150 -28 -269zM353 471l-100 15q38 117 42 219h-176v83h277v-35q0 -152 -43 -282zM140 154v83h625v-310h-104v227h-521zM526 405h341v-83h-816v83h373v171h102v-171z" />
<glyph unicode="&#xaf30;" d="M753 452l-100 11q25 115 27 235h-213v84h314v-50q0 -156 -28 -280zM351 450l-101 16q41 120 45 232h-176v84h277v-40q0 -159 -45 -292zM261 223v-199h520v-84h-624v283h104zM526 384h340v-83h-815v83h373v172h102v-172z" />
<glyph unicode="&#xaf32;" d="M754 497l-100 11q24 105 26 200h-213v83h314v-42q0 -142 -27 -252zM353 496l-101 15q39 104 43 197h-176v83h277v-41q0 -142 -43 -254zM243 270v-239q98 6 175 27l14 -82q-109 -30 -242 -30h-47v324h100zM616 -8q33 0 53.5 13t20.5 36t-20.5 35.5t-53.5 12.5 q-32 0 -52.5 -12.5t-20.5 -35.5t20 -36t53 -13zM616 157q70 0 115.5 -32t45.5 -84q0 -53 -45.5 -85.5t-115.5 -32.5t-115.5 32.5t-45.5 85.5q0 52 45.5 84t115.5 32zM667 328v-69h155v-76h-411v76h156v69h100zM526 446h341v-84h-816v84h373v150h102v-150z" />
<glyph unicode="&#xaf34;" d="M754 516l-100 13q22 92 26 188h-213v83h314v-41q0 -136 -27 -243zM353 514l-101 16q39 102 43 187h-176v83h277v-40q0 -138 -43 -246zM258 91v-79h535v-81h-637v236h504v71h-505v80h607v-227h-504zM525 469h342v-83h-816v83h372v142h102v-142z" />
<glyph unicode="&#xaf3c;" d="M753 477l-100 11q25 106 27 219h-213v83h313v-47q0 -149 -27 -266zM353 476l-100 15q38 115 42 216h-176v83h277v-35q0 -151 -43 -279zM253 168v-152h411v152h-411zM152 -66v316h613v-316h-613zM526 419h341v-83h-815v83h372v162h102v-162z" />
<glyph unicode="&#xaf3d;" d="M753 482l-100 11q25 107 27 217h-213v82h313v-46q0 -148 -27 -264zM353 481l-101 14q39 115 43 215h-176v82h277v-35q0 -150 -43 -276zM659 17v98h-401v-98h401zM659 195v92h102v-353h-605v353h102v-92h401zM526 430h341v-83h-816v83h373v153h102v-153z" />
<glyph unicode="&#xaf3f;" d="M753 466l-100 12q25 109 27 222h-213v83h313v-47q0 -150 -27 -270zM353 466l-100 15q38 117 42 219h-176v83h277v-35q0 -152 -43 -282zM510 268v-34q0 -83 82.5 -146t217.5 -81l-39 -81q-108 17 -189.5 62.5t-123.5 113.5q-42 -68 -123.5 -113.5t-189.5 -62.5l-39 81 q135 18 217.5 81t82.5 146v34h104zM526 407h340v-83h-815v83h373v165h102v-165z" />
<glyph unicode="&#xaf41;" d="M753 475l-100 11q25 108 27 219h-213v83h313v-47q0 -149 -27 -266zM353 474l-100 15q38 115 42 216h-176v83h277v-35q0 -151 -43 -279zM457 4q100 0 154 23t54 67q0 43 -54.5 66t-153.5 23t-153.5 -23t-54.5 -66q0 -44 54 -67t154 -23zM457 264q147 0 230.5 -45 t83.5 -125q0 -81 -83.5 -126t-230.5 -45t-230.5 45t-83.5 126q0 80 83.5 125t230.5 45zM526 412h340v-84h-814v84h372v166h102v-166z" />
<glyph unicode="&#xaf42;" d="M753 480l-100 10q25 112 27 217h-213v83h313v-46q0 -148 -27 -264zM353 479l-100 15q38 113 42 213h-176v83h277v-35q0 -150 -43 -276zM772 177h-250q23 -64 100 -110.5t187 -60.5l-40 -80q-107 16 -188.5 61.5t-121.5 113.5q-40 -68 -121 -113t-189 -62l-39 81 q111 14 186.5 60t99.5 110h-249v82h625v-82zM526 424h340v-83h-815v83h373v161h102v-161z" />
<glyph unicode="&#xaf43;" d="M754 498l-100 11q24 106 26 202h-213v83h314v-43q0 -142 -27 -253zM353 497l-101 15q39 105 43 199h-176v83h277v-41q0 -143 -43 -256zM763 172h-250q11 -60 90 -107.5t195 -60.5l-35 -77q-105 13 -184.5 53t-120.5 100q-41 -60 -121 -100t-184 -53l-35 77q116 13 195 60 t91 108h-250v81h252v83h105v-83h252v-81zM526 450h340v-83h-815v83h373v143h102v-143z" />
<glyph unicode="&#xaf48;" d="M551 333l-94 14q22 137 22 295h-151v85h246v-65q0 -187 -23 -329zM230 322l-94 20q44 140 46 300h-115v85h211v-58q0 -189 -48 -347zM388 449v-247q126 7 222 20l6 -76q-220 -37 -560 -37l-11 85q129 0 248 4v251h95zM885 453v-85h-123v-445h-103v904h103v-374h123z" />
<glyph unicode="&#xaf49;" d="M536 457l-97 10q24 100 26 217h-141v83h239v-55q0 -146 -27 -255zM242 452l-96 14q34 111 36 218h-109v83h205v-47q0 -150 -36 -268zM606 409l6 -75q-205 -34 -557 -34l-10 84q157 0 243 3v168h93v-164q139 7 225 18zM151 143v84h613v-301h-103v217h-510zM877 579v-85 h-113v-228h-103v561h103v-248h113z" />
<glyph unicode="&#xaf50;" d="M539 497l-97 12q21 92 23 186h-141v83h239v-50q0 -132 -24 -231zM243 494l-96 13q32 101 34 188h-108v83h205v-41q0 -136 -35 -243zM611 463l6 -72q-208 -35 -563 -35l-10 81q115 0 244 3v147h93v-143q146 7 230 19zM263 84v-74h531v-79h-634v226h501v67h-503v77h606 v-217h-501zM764 618h113v-85h-113v-196h-103v489h103v-208z" />
<glyph unicode="&#xaf5c;" d="M539 462l-98 12q22 99 24 215h-141v83h239v-55q0 -146 -24 -255zM242 459l-96 14q34 109 36 216h-109v83h205v-46q0 -150 -36 -267zM605 417l7 -72q-201 -34 -557 -34l-10 81q157 0 243 3v164h93v-161q142 7 224 19zM683 250v-26q0 -71 42.5 -129.5t123.5 -85.5l-50 -75 q-119 41 -168 155q-49 -119 -165 -163q-117 45 -165 161q-51 -111 -167 -153l-50 75q81 29 124 88t43 127v26h99v-26q0 -57 29 -111.5t86 -89.5q57 36 87 90.5t30 110.5v26h101zM764 596h113v-85h-113v-225h-103v541h103v-231z" />
<glyph unicode="&#xaf5d;" d="M536 464l-97 13q24 98 26 212h-141v83h239v-54q0 -145 -27 -254zM242 459l-96 14q34 110 36 216h-109v83h205v-46q0 -149 -36 -267zM605 421l6 -74q-204 -38 -556 -38l-10 83q156 0 243 3v167h93v-162q134 7 224 21zM465 5q202 0 202 84t-201 84t-201 -84t200 -84z M466 252q142 0 223 -43t81 -120t-81 -120t-223 -43t-223.5 43t-81.5 120t81.5 120t223.5 43zM764 589h113v-85h-113v-239h-103v561h103v-237z" />
<glyph unicode="&#xaf64;" d="M472 354l-88 13q19 121 19 273h-120v84h209v-70q0 -175 -20 -300zM202 354l-89 13q37 140 39 273h-92v84h181v-48q0 -178 -39 -322zM331 446v-223q128 8 182 16l7 -74q-169 -32 -467 -32l-14 84q130 0 206 3v226h86zM728 827h99v-903h-99v453h-81v-411h-97v843h97v-348 h81v366z" />
<glyph unicode="&#xaf65;" d="M474 465l-86 8q19 107 19 212h-124v83h211v-54q0 -143 -20 -249zM207 463l-84 22q34 108 36 200h-95v83h181v-40q0 -150 -38 -265zM514 411l8 -73q-169 -30 -468 -32l-11 84q93 0 206 3v169h87v-165q114 5 178 14zM204 151v83h622v-313h-104v230h-518zM727 827h99v-556 h-99v233h-77v-228h-96v532h96v-220h77v239z" />
<glyph unicode="&#xaf79;" d="M650 504v-212h-96v516h96v-220h77v239h99v-564h-99v241h-77zM474 466l-86 9q19 106 19 211h-124v84h211v-55q0 -143 -20 -249zM207 464l-84 22q34 111 36 200h-95v84h181v-41q0 -150 -38 -265zM515 418l7 -74q-170 -35 -468 -35l-11 83q105 0 206 4v167h87v-162 q107 5 179 17zM513 2q102 0 157 22.5t55 64.5q0 43 -55 65.5t-157 22.5t-156.5 -22.5t-54.5 -65.5q0 -87 211 -87zM513 256q149 0 233.5 -44t84.5 -123t-84.5 -122.5t-233.5 -43.5t-233 43.5t-84 122.5t84 123t233 44z" />
<glyph unicode="&#xaf80;" d="M572 331l-94 13q23 140 23 298h-158v85h252v-66q0 -186 -23 -330zM244 321l-94 17q42 148 44 304h-117v85h211v-56q0 -191 -44 -350zM407 456v-255q158 10 235 21l6 -76q-222 -37 -583 -37l-10 85q166 0 257 3v259h95zM693 827h104v-904h-104v904z" />
<glyph unicode="&#xaf84;" d="M797 826v-669h-104v669h104zM573 443l-94 11q23 100 25 216h-158v83h253v-55q0 -147 -26 -255zM259 438l-95 14q37 115 39 218h-114v83h208v-47q0 -150 -38 -268zM636 388l7 -74q-224 -37 -580 -37l-8 84q136 0 256 4v175h95v-171q110 4 230 19zM296 24h527v-84h-630v265 h103v-181z" />
<glyph unicode="&#xaf88;" d="M797 826v-491h-104v491h104zM572 496l-93 12q21 95 23 190h-157v83h252v-50q0 -135 -25 -235zM260 494l-94 12q30 97 34 192h-114v83h209v-43q0 -138 -35 -244zM636 462l8 -72q-224 -36 -581 -36l-13 81q138 0 259 4v153h95v-149q144 7 232 19zM288 10h537v-79h-640v225 h509v66h-511v78h614v-217h-509v-73z" />
<glyph unicode="&#xaf90;" d="M572 468l-93 11q23 95 25 203h-158v84h253v-53q0 -140 -27 -245zM262 465l-95 12q32 103 36 205h-114v84h208v-45q0 -144 -35 -256zM639 423l5 -74q-212 -36 -581 -38l-8 84q135 0 256 4v167h95v-163q134 7 233 20zM295 159v-143h400v143h-400zM193 -66v307h604v-307 h-604zM693 826h104v-540h-104v540z" />
<glyph unicode="&#xaf91;" d="M572 474l-93 11q23 95 25 203h-158v84h253v-53q0 -140 -27 -245zM262 471l-95 12q32 103 36 205h-114v84h208v-45q0 -144 -35 -256zM639 435l5 -73q-212 -36 -581 -38l-8 84q135 0 256 4v163h95v-158q121 5 233 18zM694 16v92h-400v-92h400zM694 187v89h103v-342h-605 v342h102v-89h400zM693 827h104v-520h-104v520z" />
<glyph unicode="&#xaf95;" d="M797 826v-558h-104v558h104zM572 466l-93 10q23 96 25 204h-158v83h253v-53q0 -140 -27 -244zM262 462l-95 13q32 102 36 205h-114v83h208v-45q0 -144 -35 -256zM639 419l5 -75q-225 -37 -581 -37l-8 84q135 0 256 4v168h95v-164q134 7 233 20zM494 2q98 0 151 22.5 t53 64.5q0 43 -53 65.5t-151 22.5t-151 -22.5t-53 -65.5q0 -42 53 -64.5t151 -22.5zM494 257q144 0 226 -44.5t82 -123.5q0 -78 -81.5 -122t-226.5 -44q-144 0 -225.5 44t-81.5 122q0 79 81.5 123.5t225.5 44.5z" />
<glyph unicode="&#xaf9c;" d="M749 270l-101 13q37 180 37 372h-239v84h340v-61q0 -217 -37 -408zM623 133h245v-85h-819v85h277v240q-16 -54 -32 -98l-97 28q69 178 71 352h-167v84h268v-47q0 -160 -34 -288h91v-271h97v271h100v-271z" />
<glyph unicode="&#xafb8;" d="M867 396v-85h-359v-388h-103v388h-355v85h217q39 148 41 288h-193v83h294v-42q0 -174 -37 -329h270q31 139 33 288h-202v83h303v-50q0 -174 -30 -321h121z" />
<glyph unicode="&#xafb9;" d="M870 383h-361v-144h253v-314h-103v231h-515v83h262v144h-356v83h231q36 129 38 239h-192v83h293v-37q0 -153 -36 -285h255q31 120 33 239h-191v83h291v-45q0 -152 -29 -277h127v-83z" />
<glyph unicode="&#xafbc;" d="M261 229v-205h518v-84h-622v289h104zM741 436h128v-84h-346v-208h-103v208h-371v84h229q38 128 42 256h-194v83h294v-38q0 -160 -38 -301h257q31 128 33 256h-190v83h290v-45q0 -160 -31 -294z" />
<glyph unicode="&#xafc0;" d="M870 426h-360v-95h256v-236h-515v-83h541v-81h-644v240h515v79h-517v81h261v95h-357v83h236q30 101 34 204h-193v83h293v-43q0 -138 -30 -244h252q26 97 30 204h-191v83h291v-41q0 -136 -27 -246h125v-83z" />
<glyph unicode="&#xafc7;" d="M642 -8q30 0 48.5 13t18.5 37t-18.5 37t-48.5 13q-31 0 -50 -13t-19 -37t19 -37t50 -13zM642 161q67 0 111 -32.5t44 -86.5t-44 -86.5t-111 -32.5q-69 0 -113 32.5t-44 86.5t44 86.5t113 32.5zM691 340v-78h143v-76h-384v76h141v78h100zM745 507h123v-83h-363v-122h-85 v-214h-192v-77q144 0 228 15l9 -76q-83 -16 -282 -16h-53v225h193v69h-195v76h274v120h-352v83h235q30 102 34 206h-192v83h292v-44q0 -138 -30 -245h253q26 99 30 206h-191v83h291v-41q0 -137 -27 -248z" />
<glyph unicode="&#xafc8;" d="M664 17v159h-411v-159h411zM870 394h-361v-136h256v-324h-613v324h254v136h-356v83h236q31 121 33 225h-192v83h293v-37q0 -147 -32 -271h255q27 115 29 225h-191v83h291v-45q0 -145 -26 -263h124v-83z" />
<glyph unicode="&#xafc9;" d="M662 16v102h-409v-102h409zM662 199v103h103v-368h-614v368h102v-103h409zM746 488h124v-84h-362v-149h-104v149h-353v84h234q32 117 34 219h-192v83h293v-36q0 -143 -32 -266h255q27 110 29 219h-191v83h291v-43q0 -143 -26 -259z" />
<glyph unicode="&#xafcb;" d="M510 219v-27q0 -68 82 -121t216 -67l-36 -78q-110 12 -192.5 52t-123.5 101q-42 -60 -124 -100.5t-190 -52.5l-37 78q132 14 215 68t83 120v27h107zM744 468h125v-84h-360v-131h-103v131h-355v84h232q34 122 36 231h-192v83h293v-37q0 -150 -33 -277h254q29 117 31 231 h-191v83h291v-45q0 -148 -28 -269z" />
<glyph unicode="&#xafcd;" d="M666 99q0 44 -54.5 67.5t-154.5 23.5t-154.5 -23.5t-54.5 -67.5q0 -43 55 -67t154 -24q100 0 154.5 24t54.5 67zM869 385h-360v-115q123 -8 192 -52.5t69 -118.5q0 -81 -83.5 -126.5t-229.5 -45.5t-229 45.5t-83 126.5q0 74 69 118.5t192 52.5v115h-356v83h234 q33 123 35 230h-192v83h293v-37q0 -149 -33 -276h255q28 117 30 230h-191v83h291v-45q0 -148 -27 -268h124v-83z" />
<glyph unicode="&#xafce;" d="M869 394h-359v-127h262v-82h-252q20 -66 97.5 -114.5t190.5 -63.5l-40 -79q-107 17 -187.5 61.5t-121.5 112.5q-40 -67 -121 -112t-188 -61l-41 79q114 15 191.5 63t97.5 114h-251v82h260v127h-357v84h235q32 121 34 225h-192v83h293v-37q0 -147 -32 -271h255 q27 114 29 225h-191v83h291v-45q0 -145 -26 -263h123v-84z" />
<glyph unicode="&#xafd4;" d="M644 428l6 -75q-93 -15 -253 -26v-377h-104v372q-142 -5 -241 -5l-14 85q24 0 74 0.5t77 0.5q32 122 34 264h-131v85h229v-57q0 -163 -29 -289q95 2 169 7q30 121 30 254h-126v85h224v-62q0 -155 -25 -270q30 2 80 8zM700 826h103v-904h-103v249h-197v81h197v574z" />
<glyph unicode="&#xafdc;" d="M513 439h183v387h103v-501h-103v42h-183v72zM273 325v140q-72 -3 -214 -5l-13 82q97 0 149 1q24 89 26 163h-124v82h223v-40q0 -114 -23 -203q104 4 156 7q21 81 23 154h-117v82h217v-41q0 -107 -19 -187q37 2 75 6l6 -72q-123 -16 -262 -24v-145h-103zM287 8h541v-77 h-644v219h512v67h-514v76h617v-214h-512v-71z" />
<glyph unicode="&#xafe8;" d="M514 401h182v425h103v-553h-103v54h-182v74zM272 279v151q-103 -4 -213 -4l-13 81q43 0 147 2q25 90 29 185h-125v84h223v-44q0 -127 -25 -224q49 2 155 8q23 86 27 176h-118v84h216v-45q0 -117 -21 -206q51 6 78 10l7 -72q-102 -19 -264 -30v-156h-103zM701 246v-19 q0 -72 46 -131.5t131 -86.5l-49 -75q-129 43 -179 160q-50 -123 -166 -168q-116 45 -165 165q-52 -114 -177 -157l-49 75q84 28 130.5 88t46.5 130v19h99v-19q0 -58 29 -113t86 -90q57 37 86.5 92t29.5 111v19h101z" />
<glyph unicode="&#xafe9;" d="M514 396h182v430h103v-570h-103v63h-182v77zM273 263v167q-95 -5 -214 -5l-13 81q42 0 146 2q26 90 30 188h-125v84h223v-44q0 -128 -26 -227q78 3 156 9q23 87 27 178h-118v84h217v-44q0 -120 -21 -210q40 3 76 9l6 -72q-102 -18 -261 -29v-171h-103zM493 1 q206 0 206 84q0 83 -206 83q-205 0 -205 -83q0 -84 205 -84zM493 246q146 0 228.5 -42t82.5 -119t-82.5 -119.5t-228.5 -42.5t-228.5 42.5t-82.5 119.5t82.5 119t228.5 42z" />
<glyph unicode="&#xaff0;" d="M516 437l7 -73q-70 -13 -195 -24v-346h-99v340q-85 -5 -186 -5l-10 82q15 0 49.5 0.5t53.5 0.5q31 116 33 239h-98v83h189v-51q0 -150 -29 -268q85 4 123 7q27 105 29 229h-92v83h183v-55q0 -143 -24 -250q26 2 66 8zM555 266v542h97v-840h-97v217h-155v81h155zM728 826 h98v-903h-98v903z" />
<glyph unicode="&#xaff1;" d="M408 390h147v421h97v-551h-97v57h-147v73zM238 262v160q-93 -4 -189 -4l-10 82q69 0 109 1q22 93 24 179h-95v82h182v-45q0 -123 -21 -215q65 2 130 6q19 79 21 172h-98v82h184v-56q0 -113 -16 -189q54 6 56 6l8 -71q-86 -16 -186 -24v-166h-99zM170 138v83h650v-297 h-103v214h-547zM722 826h98v-569h-98v569z" />
<glyph unicode="&#xaff4;" d="M820 826v-684h-98v684h98zM408 350h147v461h97v-649h-97v113h-147v75zM238 240v157q-93 -4 -189 -4l-10 81q68 0 105 1q24 94 28 195h-95v83h182v-40q0 -130 -25 -236q67 2 130 6q23 92 25 187h-98v83h184v-51q0 -122 -20 -211q39 4 60 7l8 -71q-86 -16 -186 -24v-163 h-99zM291 24h555v-84h-658v263h103v-179z" />
<glyph unicode="&#xaff8;" d="M820 825v-507h-98v507h98zM408 439h147v372h97v-486h-97v41h-147v73zM238 320v143q-92 -4 -189 -4l-10 80q70 0 109 1q21 80 23 154h-94v83h182v-41q0 -111 -20 -194q86 4 130 7q18 67 20 145h-98v83h184v-52q0 -102 -15 -169q2 0 55 6l8 -70q-79 -14 -186 -22v-150h-99z M289 8h557v-77h-659v218h531v63h-533v76h635v-211h-531v-69z" />
<glyph unicode="&#xb000;" d="M408 396h147v415h97v-536h-97v47h-147v74zM238 271v158q-93 -4 -189 -4l-10 82q69 0 108 1q23 92 25 179h-95v83h182v-45q0 -123 -21 -216q65 2 129 6q20 85 22 172h-98v83h185v-51q0 -114 -17 -195q54 6 56 6l8 -71q-84 -16 -186 -24v-164h-99zM283 152v-136h436v136 h-436zM182 -66v300h638v-300h-638zM722 827h98v-559h-98v559z" />
<glyph unicode="&#xb001;" d="M408 412h147v399h97v-520h-97v47h-147v74zM238 289v148q-93 -4 -189 -4l-10 81q69 0 108 1q23 91 25 178h-95v82h182v-46q0 -121 -21 -212q64 1 130 6q21 83 21 170h-98v82h185v-58q0 -111 -17 -185q29 1 56 6l8 -71q-84 -16 -186 -24v-154h-99zM718 16v82h-434v-82h434z M718 177v78h102v-321h-638v321h102v-78h434zM722 827h98v-539h-98v539z" />
<glyph unicode="&#xb004;" d="M820 827v-559h-98v559h98zM408 396h147v415h97v-536h-97v47h-147v74zM238 271v158q-93 -4 -189 -4l-10 82q69 0 108 1q23 92 25 179h-95v83h182v-45q0 -123 -21 -216q65 2 129 6q20 85 22 172h-98v83h185v-51q0 -114 -17 -195q54 6 56 6l8 -71q-84 -16 -186 -24v-164h-99 zM704 238v-21q0 -70 45.5 -127.5t131.5 -82.5l-48 -75q-130 41 -181 155q-48 -119 -164 -164q-120 44 -165 162q-52 -112 -179 -153l-48 75q84 26 131 84t47 126v21h99v-21q0 -56 29 -109.5t85 -87.5q57 34 86.5 87.5t29.5 109.5v21h101z" />
<glyph unicode="&#xb00c;" d="M648 426l8 -76q-101 -16 -251 -25v-361h-103v356q-143 -5 -245 -5l-14 85q23 0 74 0.5t78 0.5q33 125 35 270h-132v85h232v-58q0 -166 -31 -295q57 1 166 7q32 128 32 261h-126v85h226v-61q0 -159 -26 -277q29 2 77 8zM704 826h103v-902h-103v902z" />
<glyph unicode="&#xb010;" d="M800 826v-677h-103v677h103zM304 191v171q-107 -5 -242 -5l-14 83q45 0 149 2q31 115 33 231h-123v83h223v-50q0 -148 -29 -262q81 3 159 9q28 106 30 220h-125v83h224v-54q0 -138 -24 -240q40 3 77 9l7 -74q-105 -19 -242 -29v-177h-103zM268 24h557v-84h-660v285h103 v-201z" />
<glyph unicode="&#xb014;" d="M800 825v-467h-103v467h103zM292 12h542v-80h-646v236h509v74h-510v79h112v107q-106 -5 -237 -5l-14 81q46 0 154 2q26 94 28 187h-124v84h224v-47q0 -127 -23 -223q106 4 156 8q23 93 25 178h-120v84h220v-47q0 -119 -19 -207q69 6 71 6l7 -72q-128 -18 -244 -25v-111 h397v-227h-508v-82z" />
<glyph unicode="&#xb01c;" d="M698 19v151h-409v-151h409zM402 398v-146h398v-316h-612v316h111v140q-105 -5 -236 -5l-15 83q45 0 153 2q27 106 29 209h-123v84h223v-49q0 -136 -25 -241q108 4 159 8q24 96 26 198h-126v84h226v-53q0 -128 -21 -219q15 1 74 8l7 -74q-96 -18 -248 -29zM697 826h104 v-536h-104v536z" />
<glyph unicode="&#xb01d;" d="M304 261v142q-113 -4 -241 -4l-15 84q24 0 74.5 0.5t78.5 0.5q27 102 29 204h-123v84h223v-49q0 -135 -25 -237q88 2 158 7q25 94 27 195h-125v84h225v-52q0 -128 -22 -220q23 3 75 7l7 -74q-92 -14 -243 -25v-147h-103zM698 16v92h-421v-92h421zM698 187v97h103v-350 h-626v350h102v-97h421zM697 826h104v-505h-104v505z" />
<glyph unicode="&#xb028;" d="M867 398v-85h-201v-391h-103v391h-210v-391h-104v391h-199v85h217q39 149 41 286h-193v83h294v-42q0 -172 -37 -327h271q30 132 32 286h-202v83h303v-50q0 -173 -30 -319h121z" />
<glyph unicode="&#xb044;" d="M740 227l-102 13q40 193 40 411h-206v83h307v-67q0 -239 -39 -440zM348 227l-102 17q61 207 63 407h-197v83h299v-42q0 -66 -2 -110t-17 -145.5t-44 -209.5zM50 139h817v-85h-817v85z" />
<glyph unicode="&#xb045;" d="M139 176v83h629v-335h-103v252h-526zM741 448h128v-83h-819v83h231q37 126 41 252h-195v84h295v-40q0 -158 -38 -296h253q31 125 33 252h-192v84h293v-47q0 -159 -30 -289z" />
<glyph unicode="&#xb048;" d="M257 244v-216h532v-83h-635v299h103zM738 413h131v-83h-819v83h227q40 141 44 276h-194v83h295v-31q0 -173 -40 -328h254q32 142 36 276h-193v83h293v-35q0 -169 -34 -324z" />
<glyph unicode="&#xb04a;" d="M243 284v-253q98 6 175 27l13 -83q-104 -29 -241 -29h-47v338h100zM617 -7q33 0 53 13.5t20 38.5q0 26 -20 39.5t-53 13.5t-53 -13.5t-20 -39.5q0 -25 20 -38.5t53 -13.5zM617 169q71 0 116 -34t45 -90t-45 -89.5t-116 -33.5t-116 33.5t-45 89.5t45 90t116 34zM667 347 v-70h154v-76h-411v76h157v70h100zM745 473h124v-83h-819v83h236q34 120 36 233h-195v83h295v-47q0 -150 -31 -269h251q28 118 30 233h-193v83h293v-46q0 -150 -27 -270z" />
<glyph unicode="&#xb04c;" d="M251 104v-88h541v-82h-644v245h515v78h-517v81h620v-234h-515zM741 500h128v-83h-819v83h233q31 105 35 213h-196v82h296v-43q0 -142 -31 -252h249q28 101 32 213h-193v82h293v-41q0 -140 -27 -254z" />
<glyph unicode="&#xb04e;" d="M233 94v-83q131 0 212 14l7 -76q-76 -15 -266 -15h-49v231h193v71h-195v76h291v-218h-193zM568 235v-225h121v225h-121zM481 -66v378h295v-378h-295zM739 475h130v-83h-819v83h231q37 119 39 234h-196v82h296v-45q0 -151 -34 -271h250q31 122 33 234h-193v82h293v-42 q0 -149 -30 -274z" />
<glyph unicode="&#xb053;" d="M228 96v-84q144 0 229 15l9 -78q-85 -15 -283 -15h-53v233h193v76h-195v76h293v-223h-193zM642 -6q31 0 49.5 14t18.5 40t-18.5 40.5t-49.5 14.5t-50 -14.5t-19 -40.5t19 -40t50 -14zM642 173q68 0 112 -34.5t44 -90.5t-44 -90.5t-112 -34.5t-112.5 34.5t-44.5 90.5 t44.5 90.5t112.5 34.5zM691 358v-79h143v-75h-383v75h140v79h100zM744 483h125v-83h-819v83h237q34 117 36 229h-196v83h296v-46q0 -149 -32 -266h250q30 120 32 229h-193v83h293v-43q0 -147 -29 -269z" />
<glyph unicode="&#xb054;" d="M251 183v-163h415v163h-415zM150 -63v328h617v-328h-617zM742 461h127v-83h-819v83h234q34 125 38 245h-195v83h295v-39q0 -155 -36 -289h253q29 124 31 245h-192v83h293v-47q0 -154 -29 -281z" />
<glyph unicode="&#xb055;" d="M664 17v111h-409v-111h409zM664 208v111h102v-385h-614v385h103v-111h409zM745 478h124v-83h-819v83h236q32 120 36 232h-195v84h295v-40q0 -149 -33 -276h252q27 117 29 232h-192v84h293v-47q0 -149 -26 -269z" />
<glyph unicode="&#xb057;" d="M510 270v-38q0 -83 82 -146t217 -81l-39 -80q-108 17 -189 62t-123 113q-42 -68 -123 -113t-189 -62l-40 80q135 18 217.5 81t82.5 146v38h104zM741 439h128v-84h-819v84h229q38 136 42 262h-194v83h295v-31q0 -166 -38 -314h254q30 130 34 262h-193v83h293v-36 q0 -162 -31 -309z" />
<glyph unicode="&#xb059;" d="M457 6q98 0 153 25t55 70t-55 70t-153 25q-97 0 -152.5 -25t-55.5 -70t55.5 -70t152.5 -25zM457 280q144 0 229 -48t85 -131t-85 -131t-229 -48t-229 48t-85 131t85 131t229 48zM741 447h128v-83h-819v83h232q36 128 40 253h-195v84h295v-40q0 -159 -38 -297h253 q31 126 33 253h-192v84h293v-47q0 -160 -30 -290z" />
<glyph unicode="&#xb05d;" d="M255 92v-80h522v-78h-625v388h618v-77h-515v-78h493v-75h-493zM743 485h126v-83h-819v83h235q32 116 36 225h-194v83h295v-35q0 -147 -35 -273h252q29 112 31 225h-192v83h293v-49q0 -145 -28 -259z" />
<glyph unicode="&#xb07c;" d="M85 731h245q0 -188 -45 -337t-158 -269l-79 59q169 183 184 462h-147v85zM361 731h221q0 -203 -40 -368t-148 -298l-84 56q89 110 128.5 238.5t46.5 286.5h-124v85zM692 826h103v-903h-103v903z" />
<glyph unicode="&#xb07d;" d="M398 305l-75 58q78 66 116 141t46 176h-126v83h224q0 -151 -41 -260.5t-144 -197.5zM86 763h240q0 -143 -45.5 -242t-156.5 -180l-67 65q82 57 121.5 120.5t48.5 153.5h-141v83zM185 165v83h610v-326h-104v243h-506zM691 826h104v-538h-104v538z" />
<glyph unicode="&#xb080;" d="M795 825v-655h-104v655h104zM391 259l-71 64q83 71 121 153t46 192h-127v84h225q0 -162 -41.5 -279t-152.5 -214zM86 752h240q0 -151 -44.5 -258t-155.5 -193l-67 64q81 62 120.5 133.5t48.5 169.5h-142v84zM300 24h519v-84h-622v280h103v-196z" />
<glyph unicode="&#xb084;" d="M794 826v-459h-103v459h103zM390 358l-72 61q80 57 118.5 121.5t46.5 155.5h-125v83h224q0 -143 -43 -242t-149 -179zM84 779h241q0 -134 -48 -225t-156 -165l-65 65q78 51 118 106t51 136h-141v83zM302 15h525v-81h-627v238h493v74h-494v81h596v-231h-493v-81z" />
<glyph unicode="&#xb08c;" d="M392 314l-73 59q80 65 119 139.5t47 174.5h-127v83h225q0 -150 -42.5 -259t-148.5 -197zM86 770h238q0 -143 -45.5 -242t-156.5 -179l-66 64q82 57 121.5 120.5t48.5 153.5h-140v83zM299 184v-168h394v168h-394zM198 -66v332h596v-332h-596zM691 826h103v-519h-103v519z " />
<glyph unicode="&#xb08d;" d="M395 321l-76 59q82 65 121 138.5t47 174.5h-125v84h223q0 -151 -42.5 -259.5t-147.5 -196.5zM88 777h240q0 -144 -47 -242.5t-159 -177.5l-65 65q81 55 121.5 118t50.5 153h-141v84zM692 17v98h-387v-98h387zM692 196v100h102v-363h-592v363h103v-100h387zM691 826h103 v-487h-103v487z" />
<glyph unicode="&#xb08f;" d="M794 826v-610h-104v610h104zM394 295l-74 59q80 66 118 142t46 179h-124v84h222q0 -152 -41.5 -263t-146.5 -201zM87 759h239q0 -144 -46 -244t-157 -181l-66 64q82 57 122 121.5t49 155.5h-141v84zM559 267v-25q0 -87 81.5 -152.5t214.5 -84.5l-41 -81q-108 18 -188 65 t-121 118q-40 -70 -120.5 -117.5t-188.5 -65.5l-40 81q134 19 215 84.5t81 152.5v25h107z" />
<glyph unicode="&#xb091;" d="M795 826v-534h-104v534h104zM395 313l-74 59q80 65 118.5 139.5t46.5 175.5h-125v83h223q0 -150 -42 -259.5t-147 -197.5zM87 770h240q0 -143 -46 -242.5t-158 -177.5l-66 64q82 57 122.5 120.5t49.5 152.5h-142v83zM491 1q98 0 153 24.5t55 69.5q0 44 -55 68.5 t-153 24.5q-99 0 -154 -24.5t-55 -68.5q0 -45 55 -69.5t154 -24.5zM491 269q144 0 228 -46.5t84 -127.5t-84 -127.5t-228 -46.5q-145 0 -228.5 46.5t-83.5 127.5t84 127.5t228 46.5z" />
<glyph unicode="&#xb098;" d="M185 738v-504q206 2 389 39l12 -85q-204 -40 -429 -40h-75v590h103zM887 474v-85h-137v-466h-103v903h103v-352h137z" />
<glyph unicode="&#xb099;" d="M570 486l13 -84q-196 -39 -419 -39h-73v412h103v-327q206 3 376 38zM166 178v83h590v-338h-103v255h-487zM884 609v-85h-128v-216h-103v518h103v-217h128z" />
<glyph unicode="&#xb09a;" d="M566 501l12 -84q-195 -38 -415 -38h-72v396h103v-311q202 3 372 37zM147 193v83h284v-354h-103v271h-181zM473 193v83h283v-354h-102v271h-181zM884 616v-85h-128v-209h-103v504h103v-210h128z" />
<glyph unicode="&#xb09c;" d="M571 454l13 -84q-196 -39 -420 -39h-73v432h103v-347q206 3 377 38zM290 237v-213h497v-84h-601v297h104zM756 564h128v-86h-128v-303h-103v650h103v-261z" />
<glyph unicode="&#xb09f;" d="M568 497l12 -84q-195 -39 -416 -39h-73v405h103v-320q204 3 374 38zM282 192v-175h491v-83h-595v341h582v-83h-478zM756 623h128v-85h-128v-214h-103v503h103v-204z" />
<glyph unicode="&#xb0a0;" d="M568 533l12 -84q-197 -38 -416 -38h-73v376h103v-291q202 3 374 37zM278 100v-84h508v-82h-611v243h478v76h-480v82h583v-235h-478zM756 648h128v-85h-128v-188h-103v452h103v-179z" />
<glyph unicode="&#xb0a1;" d="M568 523l12 -84q-202 -39 -416 -39h-73v387h103v-301q200 2 374 37zM238 91v-79q172 1 255 19l10 -77q-58 -13 -119 -16.5t-189 -3.5h-57v230h197v70h-199v78h298v-221h-196zM472 230v82h284v-387h-102v305h-182zM883 633v-85h-127v-192h-103v470h103v-193h127z" />
<glyph unicode="&#xb0a2;" d="M568 525l12 -85q-195 -38 -416 -38h-73v385h103v-299q209 4 374 37zM228 93v-80q130 2 204 15l10 -78q-87 -16 -263 -16h-50v231h186v71h-188v77h288v-220h-187zM555 237v-227h111v227h-111zM466 -66v379h290v-379h-290zM884 635v-85h-128v-194h-103v470h103v-191h128z " />
<glyph unicode="&#xb0a8;" d="M570 498l13 -84q-196 -39 -419 -39h-73v407h103v-322q206 3 376 38zM280 188v-171h375v171h-375zM179 -66v336h577v-336h-577zM884 626v-85h-128v-225h-103v510h103v-200h128z" />
<glyph unicode="&#xb0a9;" d="M570 512l13 -84q-196 -39 -419 -39h-73v398h103v-313q206 3 376 38zM654 17v103h-375v-103h375zM654 201v107h102v-374h-580v374h103v-107h375zM884 632v-85h-128v-193h-103v472h103v-194h128z" />
<glyph unicode="&#xb0ab;" d="M570 475l13 -84q-201 -40 -419 -40h-73v413h103v-327q204 2 376 38zM528 284v-34q0 -87 80.5 -154t211.5 -88l-40 -80q-104 17 -183 65t-120 118q-41 -70 -120.5 -118t-183.5 -66l-41 80q131 20 212 87.5t81 155.5v34h103zM756 588h128v-85h-128v-271h-103v594h103v-238z " />
<glyph unicode="&#xb0ac;" d="M570 498l13 -84q-196 -39 -419 -39h-73v396h103v-311q206 3 376 38zM689 287v-54q0 -74 45 -136t130 -91l-52 -75q-125 46 -175 165q-50 -126 -165 -173q-120 45 -167 171q-51 -118 -172 -163l-51 75q83 30 128.5 93.5t45.5 133.5v54h100v-54q0 -62 29 -118t86 -92 q57 38 87 96t30 114v54h101zM756 621h128v-85h-128v-212h-103v502h103v-205z" />
<glyph unicode="&#xb0ad;" d="M570 486l13 -84q-196 -39 -419 -39h-73v409h103v-324q206 3 376 38zM464 4q92 0 146 26t54 71q0 46 -53.5 72t-146.5 26t-146.5 -26t-53.5 -72q0 -45 54 -71t146 -26zM464 281q138 0 220 -48.5t82 -131.5q0 -82 -82 -130.5t-220 -48.5t-220 48.5t-82 130.5q0 83 82 131.5 t220 48.5zM757 609h127v-85h-127v-230h-104v532h104v-217z" />
<glyph unicode="&#xb0ae;" d="M570 504l13 -83q-201 -40 -419 -40h-73v399h103v-314q206 3 376 38zM769 198h-242q8 -66 85 -120.5t194 -71.5l-39 -78q-101 15 -178.5 59.5t-117.5 108.5q-38 -64 -115.5 -108t-179.5 -59l-40 78q119 16 195.5 70t84.5 121h-243v82h596v-82zM756 616h128v-85h-128v-208 h-103v504h103v-211z" />
<glyph unicode="&#xb0af;" d="M569 529l11 -85q-200 -39 -416 -39h-73v376h103v-290q201 2 375 38zM772 183h-248q8 -64 84.5 -114.5t196.5 -65.5l-36 -76q-103 14 -181 54.5t-118 100.5q-40 -60 -118.5 -100.5t-182.5 -54.5l-36 76q120 15 197.5 66t85.5 114h-252v81h254v95h103v-95h251v-81zM756 629 h128v-85h-128v-210h-103v493h103v-198z" />
<glyph unicode="&#xb0b1;" d="M568 517l12 -85q-194 -39 -416 -39h-73v387h103v-300q202 3 374 37zM281 87v-75h499v-77h-602v375h583v-77h-480v-72h469v-74h-469zM756 631h128v-85h-128v-196h-103v476h103v-195z" />
<glyph unicode="&#xb0b3;" d="M569 550l11 -84q-195 -38 -416 -38h-73v357h103v-272q202 3 375 37zM471 -2q146 0 146 60t-146 60t-146 -60t146 -60zM471 193q119 0 186.5 -35.5t67.5 -99.5q0 -63 -68 -99t-186 -36t-186 36t-68 99q0 64 67.5 99.5t186.5 35.5zM523 391v-84h265v-79h-633v79h265v84h103 zM756 648h128v-85h-128v-202h-103v466h103v-179z" />
<glyph unicode="&#xb0b4;" d="M194 722v-483q137 3 265 27l11 -88q-148 -27 -319 -27h-60v571h103zM721 826h98v-903h-98v459h-107v-414h-97v840h97v-341h107v359z" />
<glyph unicode="&#xb0b5;" d="M459 482l11 -84q-138 -29 -320 -29h-59v396h103v-311q151 3 265 28zM203 174v83h612v-335h-103v252h-509zM717 827h98v-528h-98v223h-102v-217h-96v505h96v-204h102v221z" />
<glyph unicode="&#xb0b8;" d="M615 484v-300h-96v625h96v-241h102v258h98v-669h-98v327h-102zM459 443l11 -84q-139 -28 -320 -28h-59v419h103v-334q154 4 265 27zM319 30h521v-83h-625v298h104v-215z" />
<glyph unicode="&#xb0bc;" d="M615 552v-184h-97v441h97v-173h102v190h98v-461h-98v187h-102zM457 515l11 -84q-137 -25 -318 -25h-59v370h103v-286q151 3 263 25zM317 16h531v-82h-634v239h498v73h-500v81h603v-231h-498v-80z" />
<glyph unicode="&#xb0c4;" d="M459 481l11 -83q-131 -25 -320 -25h-59v395h103v-311q150 3 265 24zM313 192v-176h401v176h-401zM212 -66v340h603v-340h-603zM717 826h98v-511h-98v207h-103v-202h-96v489h96v-203h103v220z" />
<glyph unicode="&#xb0c5;" d="M459 496l11 -84q-131 -25 -319 -25h-60v381h103v-297q142 2 265 25zM714 18v98h-398v-98h398zM714 197v98h101v-361h-601v361h102v-98h398zM717 826h98v-492h-98v198h-102v-189h-97v466h97v-194h102v211z" />
<glyph unicode="&#xb0c7;" d="M615 510v-196h-97v495h97v-215h102v232h98v-589h-98v273h-102zM455 454l12 -79q-129 -36 -318 -36h-58v406h103v-325q146 3 261 34zM564 273v-31q0 -82 83.5 -149t214.5 -87l-40 -80q-105 17 -186.5 65t-122.5 118q-42 -70 -123.5 -118t-186.5 -65l-40 80 q131 20 214.5 87t83.5 149v31h103z" />
<glyph unicode="&#xb0c8;" d="M613 525v-206h-96v491h96v-202h104v218h98v-516h-98v215h-104zM457 476l11 -84q-139 -28 -317 -28h-60v395h103v-309q152 4 263 26zM711 280v-50q0 -74 45.5 -135t130.5 -89l-51 -76q-127 45 -177 163q-50 -122 -165 -171q-119 46 -167 169q-53 -117 -173 -161l-50 76 q83 30 128.5 92t45.5 132v50h100v-50q0 -61 29 -116.5t85 -92.5q57 39 87.5 96.5t30.5 112.5v50h101z" />
<glyph unicode="&#xb0c9;" d="M613 514v-201h-96v496h96v-211h104v229h98v-544h-98v231h-104zM460 466l11 -84q-140 -28 -320 -28h-60v401h103v-316q149 3 266 27zM515 4q95 0 148.5 24.5t53.5 68.5t-53.5 68.5t-148.5 24.5q-96 0 -150 -24.5t-54 -68.5t54 -68.5t150 -24.5zM515 271q140 0 222.5 -46.5 t82.5 -127.5t-82.5 -127.5t-222.5 -46.5q-141 0 -224 46.5t-83 127.5t83 127.5t224 46.5z" />
<glyph unicode="&#xb0d0;" d="M185 739v-505q208 2 389 40l12 -88q-204 -40 -429 -40h-75v593h103zM882 521h-132v-181h132v-85h-132v-332h-103v905h103v-222h132v-85z" />
<glyph unicode="&#xb0d1;" d="M570 485l13 -83q-196 -39 -419 -39h-73v412h103v-327q204 3 376 37zM166 178v83h590v-338h-103v255h-487zM882 621h-126v-108h126v-85h-126v-120h-103v518h103v-120h126v-85z" />
<glyph unicode="&#xb0d4;" d="M571 453l13 -83q-196 -39 -420 -39h-73v431h103v-346q204 3 377 37zM290 236v-212h497v-84h-601v296h104zM881 586h-125v-136h125v-85h-125v-190h-103v650h103v-154h125v-85z" />
<glyph unicode="&#xb0d8;" d="M568 533l12 -84q-197 -38 -416 -38h-73v376h103v-291q202 3 374 37zM278 100v-84h508v-82h-611v243h478v76h-480v82h583v-235h-478zM883 643h-127v-86h127v-83h-127v-99h-103v452h103v-101h127v-83z" />
<glyph unicode="&#xb0e0;" d="M570 497l13 -83q-196 -39 -419 -39h-73v407h103v-322q204 3 376 37zM280 188v-171h375v171h-375zM179 -66v336h577v-336h-577zM882 622h-126v-103h126v-85h-126v-118h-103v510h103v-119h126v-85z" />
<glyph unicode="&#xb0e5;" d="M571 485l12 -83q-196 -39 -419 -39h-73v410h103v-325q204 3 377 37zM464 4q92 0 146 26t54 71q0 46 -53.5 72t-146.5 26t-146.5 -26t-53.5 -72q0 -45 54 -71t146 -26zM464 281q138 0 220 -48.5t82 -131.5q0 -82 -82 -130.5t-220 -48.5t-220 48.5t-82 130.5q0 83 82 131.5 t220 48.5zM882 615h-125v-107h125v-85h-125v-130h-104v534h104v-127h125v-85z" />
<glyph unicode="&#xb108;" d="M201 727v-504q198 2 373 36l12 -85q-190 -37 -415 -37h-72v590h102zM698 826h103v-905h-103v531h-262v84h262v290z" />
<glyph unicode="&#xb109;" d="M572 467l13 -86q-180 -36 -411 -36h-72v429h103v-343q202 2 367 36zM191 167v84h608v-329h-103v245h-505zM696 826h103v-535h-103v285h-240v84h240v166z" />
<glyph unicode="&#xb10b;" d="M696 322v270h-239v84h239v151h103v-505h-103zM570 485l13 -86q-181 -36 -409 -36h-72v416h103v-329q198 2 365 35zM149 191v83h301v-347h-102v264h-199zM722 288v-68q0 -74 39 -133.5t115 -86.5l-52 -79q-108 41 -153 148q-47 -106 -156 -148l-52 78q77 29 117 88.5 t40 132.5v68h102z" />
<glyph unicode="&#xb10c;" d="M696 175v379h-240v84h240v188h103v-651h-103zM570 434l15 -85q-180 -36 -411 -36h-72v448h103v-361q197 2 365 34zM316 24h506v-84h-609v288h103v-204z" />
<glyph unicode="&#xb110;" d="M696 364v239h-240v84h240v139h103v-462h-103zM572 513l13 -85q-186 -34 -411 -34h-72v392h103v-307q204 2 367 34zM316 16h511v-82h-614v238h483v71h-485v82h588v-230h-483v-79z" />
<glyph unicode="&#xb112;" d="M572 497l12 -83q-184 -35 -410 -35h-72v405h103v-320q193 2 367 33zM258 89v-78q135 2 211 15l10 -78q-89 -16 -270 -16h-50v230h195v68h-197v77h296v-218h-195zM592 231v-225h116v225h-116zM503 -70v377h296v-377h-296zM695 826h104v-481h-104v251h-239v84h239v146z" />
<glyph unicode="&#xb113;" d="M572 504l12 -84q-179 -34 -410 -34h-72v398h103v-313q201 2 367 33zM258 89v-78q135 2 211 15l10 -78q-89 -16 -270 -16h-50v231h195v67h-197v77h296v-218h-195zM706 12v118h-110v-118h110zM706 208v109h93v-385h-296v385h93v-109h110zM696 826h103v-476h-103v253h-240 v83h240v140z" />
<glyph unicode="&#xb118;" d="M572 476l13 -86q-181 -35 -411 -35h-72v419h103v-333q200 2 367 35zM311 184v-168h387v168h-387zM209 -66v332h590v-332h-590zM696 826h103v-517h-103v272h-240v84h240v161z" />
<glyph unicode="&#xb119;" d="M572 495l13 -87q-181 -35 -411 -35h-72v408h103v-322q202 2 367 36zM697 17v98h-387v-98h387zM697 195v103h102v-364h-592v364h103v-103h387zM696 827h103v-491h-103v255h-240v85h240v151z" />
<glyph unicode="&#xb11b;" d="M696 217v346h-241v84h241v180h103v-610h-103zM572 456l13 -86q-181 -36 -411 -36h-72v437h103v-351q200 2 367 36zM553 278v-32q0 -87 81 -153.5t212 -85.5l-40 -80q-104 17 -183.5 64t-120.5 117q-42 -69 -122 -116.5t-184 -64.5l-40 80q131 20 212.5 86t81.5 153v32 h103z" />
<glyph unicode="&#xb11c;" d="M695 310v270h-240v84h240v162h103v-516h-103zM571 478l12 -85q-180 -36 -409 -36h-72v416h103v-329q198 2 366 34zM707 287v-51q0 -74 45.5 -136t130.5 -90l-51 -76q-129 47 -177 166q-48 -125 -164 -173q-118 44 -167 170q-53 -117 -173 -163l-51 76q83 30 129.5 93 t46.5 133v51h99v-51q0 -62 28.5 -117.5t85.5 -91.5q57 38 87 95.5t30 113.5v51h101z" />
<glyph unicode="&#xb11d;" d="M696 283v293h-240v85h240v165h103v-543h-103zM572 472l13 -86q-181 -35 -411 -35h-72v415h103v-329q200 2 367 35zM498 3q96 0 149 24.5t53 70.5t-53 70.5t-149 24.5t-148.5 -24.5t-52.5 -70.5t52.5 -70.5t148.5 -24.5zM498 274q141 0 223 -47t82 -129t-82 -129t-223 -47 t-222.5 47t-81.5 129t81.5 129t222.5 47z" />
<glyph unicode="&#xb123;" d="M696 351v266h-243v83h243v127h103v-476h-103zM571 537l14 -84q-181 -34 -411 -34h-72v365h103v-280q201 2 366 33zM496 -3q152 0 152 60t-152 60t-152 -60t152 -60zM496 191q119 0 187 -35.5t68 -98.5q0 -64 -68 -99.5t-187 -35.5t-186.5 35.5t-67.5 99.5q0 63 67.5 98.5 t186.5 35.5zM548 303h269v-79h-642v79h269v82h104v-82z" />
<glyph unicode="&#xb124;" d="M192 735v-501q150 3 270 26l13 -86q-139 -28 -324 -28h-61v589h102zM533 531v277h96v-842h-96v481h-192v84h192zM724 827h99v-904h-99v904z" />
<glyph unicode="&#xb125;" d="M540 303v260h-177v84h177v160h97v-504h-97zM465 455l12 -83q-139 -28 -321 -28h-60v418h102v-334q149 3 267 27zM207 169v83h613v-330h-103v247h-510zM722 827h98v-532h-98v532z" />
<glyph unicode="&#xb128;" d="M820 827v-667h-98v667h98zM540 183v356h-177v83h177v186h97v-625h-97zM466 422l12 -84q-137 -26 -322 -26h-60v438h102v-354q144 2 268 26zM330 24h517v-84h-620v297h103v-213z" />
<glyph unicode="&#xb12c;" d="M820 827v-467h-98v467h98zM540 367v228h-177v83h177v132h97v-443h-97zM467 506l12 -83q-138 -26 -323 -26h-60v380h102v-296q145 3 269 25zM322 14h531v-80h-634v237h499v72h-501v81h603v-229h-498v-81z" />
<glyph unicode="&#xb134;" d="M540 320v254h-177v83h177v150h97v-487h-97zM464 473l11 -84q-137 -26 -319 -26h-60v406h102v-321q150 2 266 25zM324 190v-174h395v174h-395zM223 -66v338h597v-338h-597zM722 826h98v-515h-98v515z" />
<glyph unicode="&#xb135;" d="M540 337v245h-177v84h177v142h97v-471h-97zM466 478l13 -83q-138 -29 -323 -29h-60v404h102v-319q151 3 268 27zM719 17v96h-393v-96h393zM719 194v99h101v-359h-596v359h102v-99h393zM722 826h98v-497h-98v497z" />
<glyph unicode="&#xb137;" d="M820 827v-612h-98v612h98zM540 296v248h-177v83h177v182h97v-513h-97zM462 435l11 -84q-137 -30 -318 -30h-59v425h102v-341q139 3 264 30zM564 260v-28q0 -80 83.5 -144t213.5 -82l-37 -80q-105 16 -187 63t-124 115q-42 -68 -124 -115t-187 -63l-39 80q131 18 214.5 82 t83.5 144v28h103z" />
<glyph unicode="&#xb138;" d="M820 827v-526h-98v526h98zM540 313v253h-177v83h177v160h97v-496h-97zM463 465l11 -84q-138 -28 -318 -28h-60v415h102v-330q147 3 265 27zM711 273v-40q0 -74 45 -135.5t130 -88.5l-51 -76q-125 45 -176 164q-50 -124 -165 -171q-120 45 -167 168q-53 -116 -173 -161 l-50 76q83 29 128.5 91.5t45.5 132.5v40h100v-40q0 -61 29 -116.5t85 -91.5q58 38 88 95t30 113v40h101z" />
<glyph unicode="&#xb139;" d="M820 826v-548h-98v548h98zM540 309v243h-177v84h177v172h97v-499h-97zM464 445l11 -84q-138 -25 -319 -25h-60v421h102v-337q143 2 266 25zM518 5q95 0 149 24t54 68q0 43 -54 66.5t-149 23.5q-94 0 -148.5 -24t-54.5 -66q0 -44 54 -68t149 -24zM518 268q140 0 223 -46 t83 -125q0 -80 -83 -126t-223 -46t-223 46t-83 126q0 79 83 125t223 46z" />
<glyph unicode="&#xb140;" d="M201 730v-520q207 2 356 31l11 -85q-164 -32 -399 -32h-70v606h102zM698 827h103v-907h-103v417h-256v85h256v120h-256v84h256v201z" />
<glyph unicode="&#xb141;" d="M547 431l14 -84q-165 -31 -390 -31h-69v459h103v-373q202 2 342 29zM189 159v83h610v-319h-103v236h-507zM696 827h103v-544h-103v200h-237v80h237v83h-237v79h237v102z" />
<glyph unicode="&#xb144;" d="M696 159v304h-240v82h240v89h-240v82h240v110h103v-667h-103zM556 401l10 -84q-174 -31 -394 -31h-70v478h103v-393q190 2 351 30zM316 24h506v-84h-609v278h103v-194z" />
<glyph unicode="&#xb148;" d="M696 352v169h-236v80h236v68h-236v80h236v78h103v-475h-103zM550 480l12 -84q-148 -27 -391 -27h-69v421h103v-336q213 1 345 26zM316 15h508v-81h-611v231h483v68h-485v81h588v-225h-483v-74z" />
<glyph unicode="&#xb150;" d="M546 442l13 -83q-161 -31 -387 -31h-68v456h103v-372q191 2 339 30zM312 175v-159h386v159h-386zM211 -66v323h588v-323h-588zM696 826h103v-530h-103v200h-237v80h237v79h-237v79h237v92z" />
<glyph unicode="&#xb151;" d="M554 460l9 -84q-156 -28 -390 -28h-69v442h103v-358q202 2 347 28zM697 17v97h-381v-97h381zM697 195v94h102v-355h-585v355h102v-94h381zM696 826h103v-496h-103v178h-237v80h237v73h-237v80h237v85z" />
<glyph unicode="&#xb154;" d="M695 299v201h-236v80h236v76h-236v79h236v91h103v-527h-103zM548 444l11 -83q-164 -30 -387 -30h-68v446h103v-362q189 2 341 29zM707 273v-37q0 -75 45.5 -137t130.5 -90l-51 -75q-127 45 -177 166q-50 -127 -164 -174q-118 44 -167 170q-53 -118 -173 -162l-51 75 q84 30 130 93.5t46 133.5v37h99v-37q0 -62 28.5 -118t85.5 -92q57 38 87 96t30 114v37h101z" />
<glyph unicode="&#xb155;" d="M696 277v217h-237v80h237v78h-237v79h237v95h103v-549h-103zM565 442l12 -83q-151 -31 -403 -31h-70v447h103v-363q209 1 358 30zM498 3q96 0 149 24t53 68t-52.5 67.5t-149.5 23.5q-96 0 -148.5 -23.5t-52.5 -67.5t52.5 -68t148.5 -24zM498 268q142 0 223.5 -46 t81.5 -127t-81.5 -127t-223.5 -46t-223 46t-81 127t81 127t223 46z" />
<glyph unicode="&#xb158;" d="M545 452l13 -84q-153 -30 -386 -30h-68v439h103v-355q198 1 338 30zM190 188v82h609v-347h-103v122l-515 -26l-11 80l526 21v68h-506zM696 826h103v-515h-103v190h-237v80h237v77h-237v80h237v88z" />
<glyph unicode="&#xb15c;" d="M192 725v-494q149 3 267 26l11 -87q-134 -27 -320 -27h-60v582h102zM533 629v179h96v-841h-96v384h-174v85h174v108h-174v85h174zM724 827h99v-903h-99v903z" />
<glyph unicode="&#xb160;" d="M820 826v-673h-98v673h98zM540 176v272h-168v82h168v79h-168v81h168v118h97v-632h-97zM458 392l13 -84q-125 -25 -316 -25h-59v465h102v-380q144 1 260 24zM330 24h517v-84h-620v278h103v-194z" />
<glyph unicode="&#xb178;" d="M511 117h358v-85h-818v85h356v225h-260v411h104v-327h528v-84h-268v-225z" />
<glyph unicode="&#xb179;" d="M144 145v83h623v-306h-103v223h-520zM511 393h357v-84h-817v84h356v110h-251v306h103v-223h517v-83h-265v-110z" />
<glyph unicode="&#xb17c;" d="M254 214v-190h528v-84h-630v274h102zM511 363h357v-84h-817v84h357v120h-251v313h103v-230h515v-83h-264v-120z" />
<glyph unicode="&#xb180;" d="M253 92v-78h543v-80h-646v232h515v68h-517v79h620v-221h-515zM511 460h358v-83h-820v83h359v87h-252v268h102v-186h516v-82h-263v-87z" />
<glyph unicode="&#xb182;" d="M233 86v-76q134 0 214 14l8 -76q-81 -15 -267 -15h-51v223h194v65h-196v76h292v-211h-194zM568 220v-211h120v211h-120zM480 -67v364h296v-364h-296zM512 441h357v-83h-820v83h359v89h-252v281h103v-199h515v-82h-262v-89z" />
<glyph unicode="&#xb188;" d="M255 163v-147h410v147h-410zM154 -66v311h612v-311h-612zM511 404h357v-84h-817v84h357v104h-250v303h103v-220h514v-83h-264v-104z" />
<glyph unicode="&#xb189;" d="M662 17v95h-402v-95h402zM662 192v88h102v-346h-606v346h102v-88h402zM511 421h358v-83h-818v83h357v97h-250v295h103v-212h515v-83h-265v-97z" />
<glyph unicode="&#xb18b;" d="M513 257v-24q0 -82 81.5 -145t215.5 -82l-40 -80q-108 17 -188.5 62.5t-121.5 114.5q-41 -69 -122.5 -114.5t-189.5 -62.5l-38 81q134 18 215.5 81t81.5 145v24h106zM513 396h355v-84h-817v84h358v108h-251v305h103v-222h509v-83h-257v-108z" />
<glyph unicode="&#xb18d;" d="M457 3q100 0 153.5 22t53.5 64q0 86 -207 86q-206 0 -206 -86q0 -42 53.5 -64t152.5 -22zM457 255q146 0 228.5 -43.5t82.5 -122.5q0 -78 -82.5 -122t-228.5 -44q-145 0 -228 44t-83 122q0 79 82.5 122.5t228.5 43.5zM511 397h357v-83h-817v83h357v106h-250v306h103v-223 h514v-83h-264v-106z" />
<glyph unicode="&#xb192;" d="M373 185v-169h173v169h-173zM648 185v-169h139v-82h-656v82h140v169h-131v82h640v-82h-132zM511 427h356v-83h-817v83h357v97h-249v283h103v-200h517v-83h-267v-97z" />
<glyph unicode="&#xb193;" d="M458 -6q165 0 165 52t-165 52t-165 -52t165 -52zM458 169q131 0 202 -31.5t71 -91.5t-70.5 -91.5t-202.5 -31.5t-203 31.5t-71 91.5t71.5 91.5t202.5 31.5zM510 356v-73h282v-79h-667v79h281v73h104zM514 470h355v-83h-820v83h362v78h-253v264h103v-183h517v-81h-264v-78 z" />
<glyph unicode="&#xb194;" d="M384 383v-183q121 5 215 16l7 -75q-202 -31 -553 -31l-14 84q157 0 242 2v187h-179v360h103v-277h358v-83h-179zM885 455v-85h-128v-446h-103v902h103v-371h128z" />
<glyph unicode="&#xb198;" d="M607 379l7 -73q-208 -41 -564 -41l-9 84q150 0 235 3v122h-167v295h104v-212h338v-83h-172v-117q126 6 228 22zM281 199v-175h510v-84h-614v259h104zM763 541h119v-85h-119v-311h-104v681h104v-285z" />
<glyph unicode="&#xb19c;" d="M609 472l6 -72q-201 -33 -563 -33l-9 81q147 0 227 2v92h-162v249h103v-166h341v-83h-179v-88q140 5 236 18zM265 86v-75h528v-80h-632v229h499v67h-501v79h605v-220h-499zM764 623h118v-85h-118v-195h-104v484h104v-204z" />
<glyph unicode="&#xb1a8;" d="M610 426l6 -72q-210 -40 -560 -40l-11 81q105 0 228 3v101h-166v274h103v-191h344v-83h-177v-96q132 7 233 23zM680 254v-25q0 -73 45 -132t129 -86l-50 -75q-125 42 -175 158q-49 -122 -167 -168q-117 46 -165 166q-52 -114 -175 -156l-50 75q85 28 130.5 88t45.5 130 v25h100v-26q0 -58 29 -113.5t85 -90.5q57 36 86.5 91t29.5 113v26h102zM763 594h119v-85h-119v-221h-104v538h104v-232z" />
<glyph unicode="&#xb1cc;" d="M404 382v-180q145 7 234 19l7 -76q-218 -34 -580 -34l-12 85q161 0 248 2v184h-181v361h104v-278h365v-83h-185zM693 826h104v-902h-104v902z" />
<glyph unicode="&#xb1d0;" d="M795 826v-667h-103v667h103zM630 382l6 -75q-225 -34 -571 -34l-12 84q117 0 244 3v121h-167v287h103v-205h340v-82h-172v-117q121 5 229 18zM297 24h518v-84h-621v271h103v-187z" />
<glyph unicode="&#xb1d4;" d="M793 826v-471h-103v471h103zM631 480l6 -73q-227 -34 -576 -34l-11 81q134 0 250 4v89h-171v245h104v-163h343v-82h-172v-85q141 7 227 18zM295 12h525v-81h-628v234h498v68h-500v80h603v-223h-498v-78z" />
<glyph unicode="&#xb1dc;" d="M631 430l6 -74q-210 -39 -573 -41l-13 84q130 0 247 4v105h-170v276h103v-193h343v-83h-172v-100q126 6 229 22zM297 161v-145h397v145h-397zM196 -66v309h599v-309h-599zM692 826h103v-544h-103v544z" />
<glyph unicode="&#xb1dd;" d="M630 443l5 -74q-223 -37 -574 -37l-11 84q118 0 248 3v102h-170v268h103v-186h343v-82h-172v-97q143 7 228 19zM693 16v91h-392v-91h392zM693 187v91h102v-344h-596v344h102v-91h392zM692 827h103v-508h-103v508z" />
<glyph unicode="&#xb1df;" d="M795 826v-627h-103v627h103zM629 404l6 -75q-225 -34 -571 -34l-13 84q119 0 248 3v117h-171v274h104v-191h343v-83h-173v-112q130 5 227 17zM545 249v-25q0 -79 80.5 -139.5t212.5 -77.5l-38 -81q-106 16 -186 60.5t-121 109.5q-41 -65 -121.5 -109.5t-186.5 -60.5 l-39 81q132 17 213 77.5t81 139.5v25h105z" />
<glyph unicode="&#xb1e8;" d="M371 339v-216h179v216h-179zM653 123h216v-84h-818v84h217v216h-123v408h103v-325h530v-83h-125v-216z" />
<glyph unicode="&#xb1e9;" d="M143 145v84h624v-310h-103v226h-521zM367 504v-113h181v113h-181zM652 391h216v-84h-816v84h212v113h-109v305h103v-222h517v-83h-123v-113z" />
<glyph unicode="&#xb1ec;" d="M254 215v-191h528v-84h-630v275h102zM370 485v-124h179v124h-179zM652 361h216v-83h-816v83h215v124h-110v312h103v-229h515v-83h-123v-124z" />
<glyph unicode="&#xb1f0;" d="M253 90v-79h543v-80h-646v232h515v69h-517v79h620v-221h-515zM370 545v-88h178v88h-178zM652 457h217v-84h-820v84h217v88h-110v270h102v-187h516v-83h-122v-88z" />
<glyph unicode="&#xb1f9;" d="M662 17v95h-402v-95h402zM662 192v89h102v-347h-606v347h102v-89h402zM367 520v-100h182v100h-182zM652 420h217v-83h-817v83h213v100h-107v293h103v-210h515v-83h-124v-100z" />
<glyph unicode="&#xb1fb;" d="M512 254v-23q0 -82 81.5 -144.5t215.5 -81.5l-39 -80q-108 16 -189 61.5t-122 114.5q-41 -69 -122 -114t-190 -61l-38 80q134 18 216 80.5t82 144.5v23h105zM369 506v-112h180v112h-180zM652 394h216v-83h-816v83h214v112h-108v303h103v-220h509v-83h-118v-112z" />
<glyph unicode="&#xb1fd;" d="M457 4q100 0 153.5 22t53.5 64t-53.5 64t-153.5 22q-99 0 -152.5 -22t-53.5 -64t53.5 -64t152.5 -22zM457 256q146 0 228.5 -44t82.5 -122q0 -79 -82.5 -122.5t-228.5 -43.5t-228.5 43.5t-82.5 122.5q0 78 83 122t228 44zM367 505v-108h183v108h-183zM653 397h215v-83 h-816v83h213v108h-107v304h103v-221h514v-83h-122v-108z" />
<glyph unicode="&#xb204;" d="M778 533v-83h-624v334h103v-251h521zM869 329v-85h-361v-322h-104v322h-354v85h819z" />
<glyph unicode="&#xb205;" d="M776 586v-84h-620v307h103v-223h517zM868 335h-357v-112h256v-308h-103v225h-520v83h263v112h-356v83h817v-83z" />
<glyph unicode="&#xb208;" d="M777 566v-82h-618v312h103v-230h515zM254 207v-184h528v-83h-630v267h102zM52 389h817v-83h-350v-173h-103v173h-364v83z" />
<glyph unicode="&#xb20b;" d="M775 589v-82h-617v302h104v-220h513zM868 343h-357v-102h258v-83h-520v-141h528v-83h-631v307h262v102h-357v83h817v-83z" />
<glyph unicode="&#xb20c;" d="M774 627v-83h-618v271h102v-188h516zM869 393h-360v-82h259v-221h-515v-79h543v-80h-646v232h515v69h-518v79h259v82h-357v84h820v-84z" />
<glyph unicode="&#xb214;" d="M775 591v-83h-617v303h103v-220h514zM665 17v146h-410v-146h410zM868 342h-360v-97h258v-311h-612v311h251v97h-353v84h816v-84z" />
<glyph unicode="&#xb215;" d="M776 601v-83h-618v295h103v-212h515zM662 17v91h-402v-91h402zM662 189v95h102v-350h-606v350h102v-95h402zM51 437h818v-83h-359v-119h-103v119h-356v83z" />
<glyph unicode="&#xb217;" d="M777 600v-82h-618v290h103v-208h515zM510 222v-29q0 -70 81.5 -122.5t215.5 -66.5l-35 -78q-109 12 -192 52t-124 101q-42 -61 -124 -101t-190 -52l-35 78q131 14 213.5 67.5t82.5 121.5v29h107zM50 439h819v-83h-359v-99h-104v99h-356v83z" />
<glyph unicode="&#xb219;" d="M775 587v-83h-617v305h103v-222h514zM664 89q0 86 -207 86q-206 0 -206 -86q0 -42 53.5 -64t152.5 -22q100 0 153.5 22t53.5 64zM868 341h-358v-88q123 -8 190.5 -50t67.5 -114q0 -78 -82.5 -122t-228.5 -44q-145 0 -228 44t-83 122q0 72 68.5 114.5t192.5 50.5v87h-356 v83h817v-83z" />
<glyph unicode="&#xb220;" d="M570 557v-83h-444v306h104v-223h340zM625 392l7 -77q-114 -14 -244 -22v-343h-104v339q-79 -3 -229 -3l-13 85q396 2 583 21zM696 826h103v-904h-103v218h-196v81h196v605z" />
<glyph unicode="&#xb234;" d="M517 385h179v443h103v-562h-103v46h-179v73zM559 646v-81h-427v241h103v-160h324zM273 271v141q-70 -3 -216 -5l-12 82q384 2 579 30l7 -72q-101 -18 -254 -29v-147h-104zM705 233v-16q0 -69 46 -126t131 -81l-49 -76q-129 42 -180 154q-47 -116 -165 -162 q-116 43 -165 159q-51 -108 -178 -151l-49 76q85 25 131 82.5t46 124.5v16h100v-16q0 -55 29.5 -108t85.5 -87q57 34 86.5 87t29.5 108v16h101z" />
<glyph unicode="&#xb23c;" d="M468 565v-83h-368v276h103v-193h265zM501 414l7 -75q-84 -16 -186 -24v-321h-98v314q-79 -5 -173 -5l-12 85q287 2 462 26zM553 254v554h97v-841h-97v207h-157v80h157zM728 826h98v-903h-98v903z" />
<glyph unicode="&#xb258;" d="M571 548v-84h-441v304h103v-220h338zM638 374l6 -76q-91 -15 -247 -26v-322h-103v317q-111 -4 -234 -4l-14 86q380 0 592 25zM698 827h103v-905h-103v905z" />
<glyph unicode="&#xb25c;" d="M793 827v-682h-104v682h104zM563 577v-82h-426v277h103v-195h323zM310 174v150q-145 -5 -246 -5l-14 85q375 2 581 24l6 -76q-101 -14 -225 -22v-156h-102zM279 24h539v-84h-642v268h103v-184z" />
<glyph unicode="&#xb260;" d="M793 826v-483h-104v483h104zM561 632v-82h-426v246h103v-164h323zM295 11h524v-80h-628v228h498v67h-500v79h110v99q-138 -5 -235 -5l-13 81q373 2 582 23l6 -72q-107 -14 -237 -22v-104h391v-220h-498v-74z" />
<glyph unicode="&#xb268;" d="M563 595v-82h-428v269h103v-187h325zM691 17v138h-397v-138h397zM402 356v-119h390v-302h-599v302h106v113q-105 -5 -235 -5l-14 84q375 0 581 29l8 -74q-112 -20 -237 -28zM689 826h104v-548h-104v548z" />
<glyph unicode="&#xb269;" d="M563 617v-82h-428v253h103v-171h325zM310 245v134q-83 -4 -243 -6l-14 82q375 0 579 29l6 -72q-95 -17 -225 -27v-140h-103zM691 16v83h-403v-83h403zM691 178v89h102v-333h-607v333h102v-89h403zM689 826h104v-517h-104v517z" />
<glyph unicode="&#xb274;" d="M774 531v-84h-622v336h104v-252h518zM868 331v-84h-201v-325h-103v325h-210v-325h-103v325h-200v84h817z" />
<glyph unicode="&#xb275;" d="M775 582v-83h-617v303h103v-220h514zM554 215v119h-191v-119h191zM868 334h-211v-119h112v-298h-104v215h-532v83h127v119h-208v83h816v-83z" />
<glyph unicode="&#xb27c;" d="M774 627v-83h-618v271h103v-188h515zM555 311v87h-191v-87h191zM869 398h-211v-87h110v-221h-515v-79h543v-80h-646v232h515v69h-517v79h113v87h-211v83h819v-83z" />
<glyph unicode="&#xb284;" d="M775 600v-82h-617v289h103v-207h514zM554 243v108h-189v-108h189zM668 17v144h-416v-144h416zM868 351h-211v-108h112v-309h-618v309h111v108h-210v83h816v-83z" />
<glyph unicode="&#xb285;" d="M777 605v-82h-618v286h103v-204h515zM661 14v81h-403v-81h403zM661 174v95h107v-338h-617v338h107v-95h403zM52 448h816v-83h-231v-125h-103v125h-150v-125h-102v125h-230v83z" />
<glyph unicode="&#xb289;" d="M775 588v-83h-617v304h103v-221h514zM573 246v96h-231v-96q52 9 115 9t116 -9zM457 3q100 0 153.5 22t53.5 64q0 86 -207 86q-206 0 -206 -86q0 -42 53.5 -64t152.5 -22zM868 342h-193v-125q93 -44 93 -128q0 -78 -82.5 -122t-228.5 -44q-145 0 -228 44t-83 122 q0 84 94 128v125h-188v83h816v-83z" />
<glyph unicode="&#xb290;" d="M778 422v-85h-631v411h103v-326h528zM51 124h818v-85h-818v85z" />
<glyph unicode="&#xb291;" d="M777 585v-83h-621v306h105v-223h516zM140 144v83h628v-310h-103v227h-525zM51 413h817v-81h-817v81z" />
<glyph unicode="&#xb294;" d="M776 567v-84h-620v311h103v-227h517zM253 209v-183h528v-83h-631v266h103zM50 375h820v-83h-820v83z" />
<glyph unicode="&#xb298;" d="M774 627v-83h-618v271h102v-188h516zM253 92v-78h543v-80h-646v232h515v71h-517v79h620v-224h-515zM50 468h819v-83h-819v83z" />
<glyph unicode="&#xb299;" d="M775 614v-82h-617v282h102v-200h515zM238 91v-80q180 1 264 21l10 -76q-60 -14 -124 -18t-193 -4h-57v230h200v67h-202v78h302v-218h-200zM484 226v83h290v-378h-102v295h-188zM50 460h819v-83h-819v83z" />
<glyph unicode="&#xb29a;" d="M775 617v-82h-617v279h104v-197h513zM236 91v-80q131 0 212 14l7 -76q-76 -15 -266 -15h-49v227h193v69h-195v75h292v-214h-194zM571 229v-219h121v219h-121zM484 -66v371h295v-371h-295zM50 460h819v-85h-819v85z" />
<glyph unicode="&#xb2a0;" d="M775 591v-83h-617v303h103v-220h514zM255 163v-146h410v146h-410zM154 -66v311h612v-311h-612zM52 421h816v-83h-816v83z" />
<glyph unicode="&#xb2a1;" d="M776 600v-83h-618v296h103v-213h515zM662 17v95h-402v-95h402zM662 192v89h102v-347h-606v347h102v-89h402zM51 431h818v-83h-818v83z" />
<glyph unicode="&#xb2a3;" d="M770 587v-83h-612v305h103v-222h509zM513 262v-23q0 -84 81.5 -147t215.5 -81l-40 -81q-107 17 -188 63t-122 115q-41 -69 -122.5 -114.5t-189.5 -62.5l-38 81q134 18 215.5 80.5t81.5 146.5v23h106zM51 410h817v-83h-817v83z" />
<glyph unicode="&#xb2a5;" d="M775 586v-83h-617v306h103v-223h514zM457 5q99 0 153 22.5t54 63.5q0 86 -207 86q-206 0 -206 -86q0 -41 53.5 -63.5t152.5 -22.5zM457 258q146 0 228.5 -44t82.5 -123q0 -78 -82.5 -122t-228.5 -44q-145 0 -228 44t-83 122q0 79 82.5 123t228.5 44zM51 412h817v-84h-817 v84z" />
<glyph unicode="&#xb2a6;" d="M776 588v-83h-615v297h103v-214h512zM773 179h-255q17 -65 95.5 -112.5t196.5 -61.5l-39 -78q-109 15 -190 57.5t-122 107.5q-41 -65 -122 -107.5t-190 -57.5l-38 78q118 14 196 61.5t95 112.5h-255v82h628v-82zM52 426h816v-84h-816v84z" />
<glyph unicode="&#xb2aa;" d="M773 600v-82h-615v288h103v-206h512zM373 189v-173h173v173h-173zM648 189v-173h138v-82h-655v82h140v173h-131v82h640v-82h-132zM50 436h817v-83h-817v83z" />
<glyph unicode="&#xb2ac;" d="M582 489v-83h-460v342h104v-259h356zM63 132l-11 85q379 0 587 25l6 -76q-223 -34 -582 -34zM696 826h103v-902h-103v902z" />
<glyph unicode="&#xb2b0;" d="M797 826v-663h-103v663h103zM573 567v-83h-443v293h104v-210h339zM631 401l5 -75q-226 -34 -573 -34l-12 85q365 0 580 24zM305 24h515v-84h-619v272h104v-188z" />
<glyph unicode="&#xb2b4;" d="M793 827v-475h-103v475h103zM568 624v-82h-440v248h104v-166h336zM632 486l5 -72q-225 -34 -574 -34l-11 81q386 2 580 25zM295 16h525v-82h-628v233h498v67h-500v80h603v-223h-498v-75z" />
<glyph unicode="&#xb2c8;" d="M206 738v-499q212 2 405 41l11 -86q-208 -43 -441 -43h-77v587h102zM694 826h103v-903h-103v903z" />
<glyph unicode="&#xb2c9;" d="M605 491l12 -83q-207 -40 -437 -40h-75v408h103v-323q209 2 397 38zM187 182v83h608v-343h-103v260h-505zM692 825h103v-517h-103v517z" />
<glyph unicode="&#xb2cc;" d="M795 826v-656h-103v656h103zM606 460l12 -84q-196 -40 -438 -40h-75v423h103v-338q220 2 398 39zM303 24h518v-84h-621v301h103v-217z" />
<glyph unicode="&#xb2d0;" d="M795 826v-449h-103v449h103zM605 535l12 -82q-194 -41 -437 -41h-76v371h104v-287q212 2 397 39zM308 15h514v-81h-617v242h487v78h-489v80h592v-234h-487v-85z" />
<glyph unicode="&#xb2d2;" d="M604 529l14 -82q-196 -41 -438 -41h-75v377h103v-292q216 2 396 38zM262 94v-84q135 2 209 16l8 -77q-94 -16 -267 -16h-50v232h196v74h-198v76h298v-221h-196zM592 240v-233h115v233h-115zM505 -67v382h290v-382h-290zM692 826h103v-468h-103v468z" />
<glyph unicode="&#xb2d8;" d="M605 498l12 -83q-197 -41 -437 -41h-75v400h103v-314q219 2 397 38zM305 194v-177h389v177h-389zM203 -66v342h592v-342h-592zM691 826h104v-509h-104v509z" />
<glyph unicode="&#xb2d9;" d="M604 511l13 -84q-199 -40 -437 -40h-76v395h103v-310q215 2 397 39zM693 17v103h-384v-103h384zM693 200v107h102v-373h-588v373h102v-107h384zM692 826h103v-479h-103v479z" />
<glyph unicode="&#xb2db;" d="M796 826v-606h-104v606h104zM606 476l11 -84q-190 -40 -437 -40h-76v412h104v-327q218 2 398 39zM550 288v-29q0 -91 82 -160.5t216 -91.5l-40 -80q-108 19 -189.5 69t-122.5 124q-40 -74 -121 -124t-187 -69l-41 80q133 22 214.5 91.5t81.5 160.5v29h107z" />
<glyph unicode="&#xb2dd;" d="M793 826v-531h-103v531h103zM606 484l12 -84q-196 -40 -438 -40h-75v409h103v-324q219 2 398 39zM491 6q96 0 149.5 25.5t53.5 72.5q0 46 -53.5 71.5t-149.5 25.5t-149.5 -25.5t-53.5 -71.5q0 -47 53.5 -72.5t149.5 -25.5zM491 284q141 0 223.5 -48t82.5 -132t-82 -132.5 t-224 -48.5t-224 48.5t-82 132.5t82.5 132t223.5 48z" />
<glyph unicode="&#xb2e2;" d="M795 825v-483h-104v483h104zM607 510l13 -84q-195 -40 -439 -40h-76v388h103v-303q223 2 399 39zM410 211v-195h173v195h-173zM685 16h124v-82h-625v82h124v195h-115v83h607v-83h-115v-195z" />
<glyph unicode="&#xb2e4;" d="M190 657v-427q225 2 382 29l11 -85q-164 -30 -422 -30h-74v597h420v-84h-317zM891 479v-85h-141v-472h-103v905h103v-348h141z" />
<glyph unicode="&#xb2e5;" d="M568 468l10 -83q-145 -31 -417 -31h-73v409h402v-84h-299v-240q246 1 377 29zM162 165v84h594v-328h-103v244h-491zM884 606v-85h-128v-225h-103v530h103v-220h128z" />
<glyph unicode="&#xb2e6;" d="M567 474l11 -82q-145 -31 -417 -31h-73v404h400v-83h-297v-237q241 1 376 29zM141 186v83h291v-346h-103v263h-188zM473 186v83h283v-346h-102v263h-181zM884 608v-85h-128v-213h-103v516h103v-218h128z" />
<glyph unicode="&#xb2e8;" d="M568 441l10 -83q-145 -31 -417 -31h-73v425h402v-84h-299v-256q246 1 377 29zM288 239v-215h504v-84h-608v299h104zM756 568h128v-85h-128v-310h-103v654h103v-259z" />
<glyph unicode="&#xb2eb;" d="M568 477l10 -82q-145 -31 -417 -31h-73v406h400v-84h-297v-238q240 1 377 29zM285 189v-172h495v-83h-598v337h582v-82h-479zM756 620h128v-85h-128v-216h-103v508h103v-207z" />
<glyph unicode="&#xb2ec;" d="M568 514l12 -81q-151 -32 -421 -32h-73v375h402v-82h-299v-210q240 1 379 30zM276 97v-81h510v-82h-611v241h479v75h-481v83h583v-236h-480zM756 645h128v-85h-128v-186h-103v452h103v-181z" />
<glyph unicode="&#xb2ed;" d="M568 497l12 -82q-147 -31 -421 -31h-73v390h402v-83h-299v-225q241 1 379 31zM238 89v-77q171 1 256 19l9 -78q-58 -12 -119.5 -15.5t-188.5 -3.5h-56v227h196v69h-198v77h298v-218h-197zM472 225v82h284v-378h-102v296h-182zM884 625v-85h-128v-195h-103v482h103v-202 h128z" />
<glyph unicode="&#xb2ee;" d="M568 498l12 -82q-151 -32 -421 -32h-73v390h402v-83h-299v-224q241 1 379 31zM226 89v-77q128 2 206 15l9 -78q-94 -15 -265 -15h-50v228h189v66h-191v77h291v-216h-189zM555 229v-219h111v219h-111zM466 -66v371h290v-371h-290zM884 627v-85h-128v-197h-103v482h103 v-200h128z" />
<glyph unicode="&#xb2ef;" d="M568 497l12 -81q-151 -32 -421 -32h-73v390h402v-83h-299v-224q240 1 379 30zM225 89v-79q125 1 204 16l8 -76q-85 -16 -262 -16h-49v224h187v67h-189v78h288v-214h-187zM663 14v115h-110v-115h110zM663 206v107h93v-379h-296v379h93v-107h110zM884 631v-85h-128v-199 h-103v480h103v-196h128z" />
<glyph unicode="&#xb2f3;" d="M568 503l12 -81q-151 -32 -421 -32h-73v385h402v-83h-299v-219q240 1 379 30zM220 93v-79q138 2 213 16l10 -77q-86 -16 -270 -16h-51v227h188v70h-190v76h288v-217h-188zM623 -8q31 0 50.5 15t19.5 41t-19.5 40.5t-50.5 14.5t-50.5 -14.5t-19.5 -40.5t19.5 -41t50.5 -15 zM623 173q68 0 112.5 -34.5t44.5 -90.5q0 -57 -44 -91t-113 -34t-113 34t-44 91q0 56 44.5 90.5t112.5 34.5zM674 353v-75h142v-76h-381v76h139v75h100zM756 639h127v-85h-127v-175h-103v447h103v-187z" />
<glyph unicode="&#xb2f4;" d="M568 472l10 -83q-84 -18 -174 -24t-243 -6h-73v409h400v-83h-297v-242q246 1 377 29zM281 191v-174h374v174h-374zM179 -66v338h577v-338h-577zM884 613v-85h-128v-211h-103v510h103v-214h128z" />
<glyph unicode="&#xb2f5;" d="M568 483l10 -83q-84 -18 -174 -24t-243 -6h-73v400h400v-84h-297v-232q246 1 377 29zM654 20v97h-374v-97h374zM654 198v99h102v-361h-578v361h102v-99h374zM884 622v-85h-128v-193h-103v483h103v-205h128z" />
<glyph unicode="&#xb2f7;" d="M569 454l11 -84q-147 -30 -421 -30h-73v419h402v-83h-299v-252q243 1 380 30zM528 277v-29q0 -87 81 -154t212 -87l-40 -81q-105 17 -184.5 65t-119.5 119q-41 -71 -120.5 -119t-183.5 -65l-41 81q131 20 212 87t81 154v29h103zM756 581h128v-85h-128v-266h-103v596h103 v-245z" />
<glyph unicode="&#xb2f8;" d="M567 474l11 -82q-156 -31 -417 -31h-73v409h400v-84h-297v-241q232 1 376 29zM689 278v-43q0 -74 45 -136t130 -90l-52 -75q-124 44 -175 165q-49 -124 -165 -173q-120 47 -167 170q-51 -117 -172 -162l-51 75q83 31 128.5 94t45.5 132v43h100v-43q0 -61 29 -117t86 -92 q57 39 87 96.5t30 112.5v43h101zM756 616h128v-85h-128v-217h-103v513h103v-211z" />
<glyph unicode="&#xb2f9;" d="M569 470l11 -84q-147 -30 -421 -30h-73v405h402v-84h-299v-237q249 1 380 30zM465 6q94 0 146.5 24.5t52.5 70.5q0 45 -52 69.5t-147 24.5t-147 -24.5t-52 -69.5q0 -46 52.5 -70.5t146.5 -24.5zM465 278q139 0 220 -47.5t81 -129.5q0 -83 -81 -131t-220 -48t-220 48 t-81 131q0 82 81 129.5t220 47.5zM758 601h126v-85h-126v-220h-105v530h105v-225z" />
<glyph unicode="&#xb2fa;" d="M568 481l10 -82q-155 -31 -417 -31h-73v400h400v-83h-297v-232q237 1 377 28zM769 189h-242q11 -64 87.5 -116.5t190.5 -69.5l-37 -78q-103 15 -181 59t-116 108q-38 -64 -115.5 -107t-181.5 -59l-38 79q116 15 192 67t87 117h-242v82h596v-82zM756 609h128v-85h-128 v-210h-103v513h103v-218z" />
<glyph unicode="&#xb2fb;" d="M569 510l11 -83q-151 -32 -421 -32h-73v381h402v-81h-299v-216q242 1 380 31zM772 175h-246q12 -62 88.5 -110t192.5 -62l-37 -77q-104 14 -182.5 55.5t-117.5 103.5q-40 -62 -119 -103.5t-183 -55.5l-36 77q116 14 193 62.5t89 109.5h-250v79h254v93h103v-93h251v-79z M756 627h128v-85h-128v-223h-103v507h103v-199z" />
<glyph unicode="&#xb2ff;" d="M569 526l11 -81q-150 -32 -421 -32h-73v368h402v-83h-299v-202q241 1 380 30zM471 -6q145 0 145 59q0 60 -145 60q-146 0 -146 -60q0 -59 146 -59zM471 186q119 0 186 -35t67 -98t-67.5 -97.5t-185.5 -34.5q-119 0 -186.5 34.5t-67.5 97.5t67.5 98t186.5 35zM523 378v-81 h265v-79h-633v79h265v81h103zM756 636h128v-85h-128v-200h-103v475h103v-190z" />
<glyph unicode="&#xb300;" d="M182 635v-412q164 2 279 25l9 -85q-130 -25 -329 -25h-60v581h334v-84h-233zM723 827h98v-903h-98v462h-107v-418h-97v840h97v-338h107v357z" />
<glyph unicode="&#xb301;" d="M468 452l9 -84q-127 -25 -330 -25h-61v417h346v-84h-244v-249q166 2 280 25zM202 163v83h613v-324h-103v241h-510zM717 826h98v-538h-98v231h-100v-227h-96v517h96v-207h100v224z" />
<glyph unicode="&#xb304;" d="M617 491v-309h-96v627h96v-234h100v252h98v-671h-98v335h-100zM468 421l9 -83q-125 -26 -330 -26h-61v431h346v-84h-244v-263q168 2 280 25zM322 24h518v-84h-622v294h104v-210z" />
<glyph unicode="&#xb308;" d="M618 547v-181h-97v444h97v-181h99v198h98v-468h-98v188h-99zM470 505l9 -81q-131 -26 -332 -26h-61v377h346v-83h-244v-212q166 2 282 25zM316 16h532v-82h-634v237h500v70h-502v82h603v-229h-499v-78z" />
<glyph unicode="&#xb310;" d="M469 465l9 -83q-126 -26 -331 -26h-61v408h349v-83h-247v-241q167 2 281 25zM310 185v-170h404v170h-404zM209 -66v331h606v-331h-606zM717 826h98v-519h-98v220h-100v-212h-96v494h96v-199h100v216z" />
<glyph unicode="&#xb311;" d="M469 472l9 -83q-126 -26 -331 -26h-61v401h349v-83h-247v-234q167 2 281 25zM714 18v98h-398v-98h398zM714 196v96h101v-357h-601v357h102v-96h398zM717 826h98v-495h-98v204h-100v-195h-96v469h96v-190h100v207z" />
<glyph unicode="&#xb313;" d="M617 515v-206h-96v502h96v-212h100v228h98v-597h-98v285h-100zM469 448l9 -84q-122 -25 -331 -25h-61v413h349v-84h-247v-245q167 2 281 25zM561 273v-31q0 -82 84.5 -149.5t214.5 -86.5l-43 -80q-104 18 -184.5 66t-121.5 118q-42 -70 -122.5 -118t-185.5 -66l-42 80 q130 19 214 86.5t84 149.5v31h102z" />
<glyph unicode="&#xb314;" d="M617 528v-214h-96v495h96v-197h100v214h98v-518h-98v220h-100zM469 462l9 -83q-126 -26 -331 -26h-61v410h349v-84h-247v-242q167 2 281 25zM711 274v-49q0 -73 45.5 -134.5t130.5 -89.5l-51 -75q-126 43 -177 163q-50 -122 -165 -171q-121 47 -167 168 q-53 -115 -174 -160l-51 75q83 30 129.5 92.5t46.5 131.5v49h99v-49q0 -60 29 -115.5t86 -91.5q57 39 87.5 95.5t30.5 111.5v49h101z" />
<glyph unicode="&#xb315;" d="M617 514v-211h-96v506h96v-212h101v229h98v-551h-98v239h-101zM469 452l9 -84q-127 -25 -331 -25h-61v414h342v-83h-240v-247q167 2 281 25zM514 4q97 0 150 23.5t53 66.5q0 44 -53 67.5t-150 23.5t-150 -23.5t-53 -67.5q0 -43 53 -66.5t150 -23.5zM514 265 q143 0 224.5 -45t81.5 -126q0 -80 -81.5 -125.5t-224.5 -45.5t-224.5 45.5t-81.5 125.5q0 81 81.5 126t224.5 45z" />
<glyph unicode="&#xb31c;" d="M190 657v-427q225 2 382 29l11 -84q-163 -31 -422 -31h-74v597h420v-84h-317zM882 522h-132v-180h132v-85h-132v-335h-103v905h103v-220h132v-85z" />
<glyph unicode="&#xb354;" d="M198 659v-431q221 2 361 27l10 -83q-156 -30 -403 -30h-71v601h410v-84h-307zM698 827h103v-906h-103v500h-242v85h242v321z" />
<glyph unicode="&#xb355;" d="M553 431l11 -83q-144 -29 -396 -29h-69v445h409v-83h-306v-278q219 1 351 28zM190 158v83h609v-318h-103v235h-506zM696 826h103v-542h-103v229h-236v83h236v230z" />
<glyph unicode="&#xb356;" d="M558 448l10 -83q-152 -27 -399 -27h-70v432h416v-84h-313v-264q219 1 356 26zM160 182v83h303v-342h-103v259h-200zM500 182v83h299v-342h-103v259h-196zM696 827h103v-519h-103v215h-236v84h236v220z" />
<glyph unicode="&#xb358;" d="M459 582h237v244h103v-658h-103v331h-237v83zM560 405l10 -82q-147 -29 -397 -29h-70v463h411v-83h-308v-296q211 1 354 27zM316 20h506v-83h-609v281h103v-198z" />
<glyph unicode="&#xb35b;" d="M460 612h236v214h103v-516h-103v219h-236v83zM553 453l13 -82q-148 -29 -394 -29h-69v435h409v-84h-306v-267q213 1 347 27zM307 17h511v-83h-613v332h598v-83h-496v-166z" />
<glyph unicode="&#xb35c;" d="M460 631h235v195h104v-471h-104v198h-235v78zM554 484l10 -80q-137 -26 -396 -26h-69v399h409v-82h-306v-236q227 1 352 25zM314 15h515v-81h-617v231h485v68h-486v80h588v-224h-485v-74z" />
<glyph unicode="&#xb35e;" d="M559 473l10 -81q-137 -26 -397 -26h-69v408h409v-81h-306v-246q224 1 353 26zM258 90v-78q134 2 211 14l10 -77q-89 -15 -270 -15h-50v228h195v66h-197v77h296v-215h-195zM592 229v-220h116v220h-116zM503 -68v373h296v-373h-296zM695 827h104v-485h-104v198h-236v78h236 v209z" />
<glyph unicode="&#xb35f;" d="M560 472l9 -81q-144 -26 -397 -26h-69v409h409v-81h-306v-247q224 1 354 26zM257 91v-79q129 1 211 16l10 -78q-89 -16 -270 -16h-50v230h195v68h-197v78h297v-219h-196zM705 15v117h-110v-117h110zM705 210v109h93v-385h-296v385h93v-109h110zM695 827h104v-475h-104 v188h-236v79h236v208z" />
<glyph unicode="&#xb364;" d="M554 452l10 -84q-148 -28 -396 -28h-69v432h409v-83h-306v-265q219 1 352 28zM307 180v-163h391v163h-391zM206 -65v327h593v-327h-593zM696 827h103v-523h-103v223h-236v84h236v216z" />
<glyph unicode="&#xb365;" d="M551 464l11 -84q-145 -28 -394 -28h-69v423h409v-83h-306v-256q219 1 349 28zM697 17v99h-387v-99h387zM697 197v96h102v-359h-592v359h103v-96h387zM696 827h103v-496h-103v203h-236v84h236v209z" />
<glyph unicode="&#xb367;" d="M460 598h236v229h103v-613h-103v301h-236v83zM553 439l11 -83q-138 -29 -396 -29h-69v443h407v-84h-304v-275q219 1 351 28zM556 273v-30q0 -84 82.5 -150.5t213.5 -85.5l-40 -80q-107 17 -188 65.5t-121 119.5q-42 -71 -122.5 -120t-185.5 -65l-39 80q128 20 211 87 t83 149v30h106z" />
<glyph unicode="&#xb369;" d="M460 601h236v225h103v-547h-103v238h-236v84zM553 440l11 -84q-150 -28 -396 -28h-69v436h409v-84h-306v-268q212 1 351 28zM498 2q96 0 149 24t53 69q0 44 -53 68.5t-149 24.5t-148.5 -24.5t-52.5 -68.5q0 -45 52.5 -69t148.5 -24zM498 268q142 0 223.5 -46t81.5 -127 t-81.5 -127t-223.5 -46t-223 46t-81 127t81 127t223 46z" />
<glyph unicode="&#xb36b;" d="M463 629h233v197h103v-514h-103v238h-233v79zM552 484l10 -80q-142 -27 -394 -27h-69v404h409v-81h-306v-242q221 1 350 26zM812 167h-258q9 -56 91 -104t200 -60l-33 -77q-107 11 -189 51.5t-123 98.5q-42 -59 -124.5 -99t-188.5 -51l-33 77q119 11 201 59t91 105h-257 v79h259v89h105v-89h259v-79z" />
<glyph unicode="&#xb36e;" d="M460 618h236v208h103v-499h-103v208h-236v83zM558 461l10 -84q-148 -28 -396 -28h-69v426h411v-83h-308v-259q218 1 352 28zM416 198v-182h167v182h-167zM685 16h132v-82h-632v82h130v182h-122v82h613v-82h-121v-182z" />
<glyph unicode="&#xb370;" d="M183 636v-418q168 1 278 25l9 -85q-128 -25 -328 -25h-61v587h342v-84h-240zM539 488v319h97v-841h-97v438h-178v84h178zM723 827h99v-903h-99v903z" />
<glyph unicode="&#xb371;" d="M382 592h163v215h97v-524h-97v226h-163v83zM471 429l9 -82q-110 -20 -329 -20h-60v431h346v-83h-244v-266q177 2 278 20zM205 152v84h615v-314h-103v230h-512zM722 826h98v-549h-98v549z" />
<glyph unicode="&#xb374;" d="M820 826v-667h-98v667h98zM382 581h163v227h96v-627h-96v316h-163v84zM471 409l9 -82q-132 -26 -329 -26h-60v450h346v-82h-244v-285q160 2 278 25zM326 25h519v-85h-622v293h103v-208z" />
<glyph unicode="&#xb378;" d="M820 826v-477h-98v477h98zM384 631h162v178h96v-453h-96v195h-162v80zM471 486l8 -82q-115 -21 -328 -21h-60v395h346v-82h-244v-231q168 2 278 21zM316 15h534v-81h-636v231h504v68h-506v80h608v-224h-504v-74z" />
<glyph unicode="&#xb380;" d="M386 610h159v197h97v-496h-97v216h-159v83zM472 448l7 -82q-109 -21 -328 -21h-60v423h346v-82h-244v-259q178 2 279 21zM323 183v-167h396v167h-396zM222 -66v331h598v-331h-598zM722 827h98v-524h-98v524z" />
<glyph unicode="&#xb381;" d="M382 618h163v189h97v-474h-97v202h-163v83zM472 462l7 -83q-110 -20 -328 -20h-60v412h346v-82h-244v-248q178 2 279 21zM718 16v99h-394v-99h394zM718 196v94h102v-357h-598v357h102v-94h394zM722 827h98v-501h-98v501z" />
<glyph unicode="&#xb383;" d="M820 826v-605h-98v605h98zM381 598h164v211h97v-510h-97v216h-164v83zM472 429l7 -82q-124 -21 -328 -21h-60v435h344v-82h-242v-271q161 2 279 21zM568 265v-30q0 -81 83.5 -145.5t213.5 -83.5l-38 -80q-106 16 -187.5 63.5t-123.5 116.5q-42 -69 -123.5 -116.5 t-187.5 -63.5l-39 80q131 19 215 83.5t84 145.5v30h103z" />
<glyph unicode="&#xb384;" d="M820 825v-527h-98v527h98zM386 603h159v204h97v-498h-97v211h-159v83zM472 438l7 -82q-132 -21 -328 -21h-60v425h346v-82h-244v-260q168 2 279 20zM711 270v-42q0 -73 45.5 -134.5t129.5 -88.5l-51 -76q-126 45 -176 164q-50 -123 -165 -172q-118 46 -167 169 q-53 -117 -173 -161l-50 76q83 29 128.5 91.5t45.5 131.5v42h100v-42q0 -59 29 -115t85 -92q58 39 88 95.5t30 111.5v42h101z" />
<glyph unicode="&#xb385;" d="M820 826v-546h-98v546h98zM384 598h161v209h97v-496h-97v203h-161v84zM472 434l9 -82q-116 -23 -330 -23h-60v428h348v-82h-246v-264q174 1 279 23zM517 4q97 0 150.5 23.5t53.5 66.5t-53.5 66.5t-150.5 23.5t-151 -23.5t-54 -66.5t54 -66.5t151 -23.5zM517 265 q141 0 224 -46t83 -125q0 -80 -82.5 -126t-224.5 -46q-143 0 -226 46t-83 126q0 79 83 125t226 46z" />
<glyph unicode="&#xb38c;" d="M202 666v-459q215 1 361 27l10 -83q-151 -29 -403 -29h-71v628h414v-84h-311zM698 827h103v-907h-103v388h-232v85h232v114h-232v85h232v235z" />
<glyph unicode="&#xb390;" d="M485 654h211v172h103v-668h-103v242h-211v81h211v92h-211v81zM532 370l10 -82q-138 -26 -374 -26h-65v497h387v-84h-284v-331q199 2 326 26zM315 24h507v-84h-609v260h102v-176z" />
<glyph unicode="&#xb394;" d="M523 461l8 -71q-131 -25 -367 -25h-65v417h387v-82h-284v-254q180 1 288 18v77h205v76h-205v79h205v130h104v-478h-104v113h-172zM314 11h514v-80h-616v231h485v71h-486v79h588v-225h-485v-76z" />
<glyph unicode="&#xb3a0;" d="M522 426l10 -76q-136 -27 -368 -27h-65v444h387v-83h-284v-279q174 1 292 21h-3v82h204v84h-204v81h204v154h104v-530h-104v129h-173zM707 270v-34q0 -75 45.5 -137t130.5 -90l-51 -75q-127 45 -177 165q-50 -126 -164 -173q-118 44 -167 170q-53 -118 -173 -162l-51 75 q83 30 129.5 93.5t46.5 133.5v34h99v-34q0 -62 28.5 -118t85.5 -92q57 38 87 96t30 114v34h101z" />
<glyph unicode="&#xb3a1;" d="M525 420l10 -77q-140 -28 -367 -28h-65v452h387v-83h-284v-286q176 2 293 22h-5v81h201v89h-201v82h201v155h104v-559h-104v152h-170zM499 1q96 0 148.5 24t52.5 68t-53 68t-148 24q-96 0 -149 -24t-53 -68t52.5 -68t149.5 -24zM499 264q142 0 223 -45t81 -126t-81 -126 t-223 -45t-223.5 45t-81.5 126t81.5 126t223.5 45z" />
<glyph unicode="&#xb3a8;" d="M183 643v-429q163 1 273 24l10 -84q-121 -25 -325 -25h-60v598h342v-84h-240zM539 575v233h97v-842h-97v339h-166v84h166v103h-166v83h166zM723 827h99v-904h-99v904z" />
<glyph unicode="&#xb3ac;" d="M820 826v-670h-98v670h98zM401 645h144v163h96v-629h-96v220h-143v81h143v84h-144v81zM441 379l10 -82q-121 -23 -304 -23h-56v479h314v-82h-212v-315q131 1 248 23zM326 25h519v-85h-622v270h103v-185z" />
<glyph unicode="&#xb3c4;" d="M510 116h359v-85h-818v85h356v213h-256v429h618v-83h-515v-263h523v-83h-267v-213z" />
<glyph unicode="&#xb3c5;" d="M141 140v83h628v-306h-103v223h-525zM511 382h356v-83h-816v83h356v94h-254v314h615v-83h-513v-148h521v-83h-265v-94z" />
<glyph unicode="&#xb3c8;" d="M255 203v-179h528v-84h-631v263h103zM511 358h357v-84h-816v84h355v104h-254v319h615v-83h-513v-153h521v-83h-265v-104z" />
<glyph unicode="&#xb3cb;" d="M254 155v-139h525v-82h-628v304h619v-83h-516zM511 398h357v-83h-816v83h355v90h-253v302h612v-83h-509v-136h518v-83h-264v-90z" />
<glyph unicode="&#xb3cc;" d="M251 84v-73h540v-79h-642v225h515v66h-517v77h618v-216h-514zM511 445h357v-82h-819v82h358v74h-251v275h607v-83h-505v-110h514v-82h-261v-74z" />
<glyph unicode="&#xb3ce;" d="M233 83v-75q134 0 214 14l8 -76q-81 -15 -267 -15h-51v223h194v66h-196v75h292v-212h-194zM567 221v-215h121v215h-121zM480 -69v364h295v-364h-295zM511 442h356v-83h-817v83h358v76h-254v272h612v-82h-509v-108h516v-82h-262v-76z" />
<glyph unicode="&#xb3d0;" d="M691 309v-68q0 -74 37.5 -139t110.5 -98l-57 -72q-100 49 -142 161q-42 -113 -142 -161l-53 67l5 -51q-75 -14 -263 -14h-50v220h195v67h-197v74h295v-211h-195v-75q137 1 208 14l2 -17q72 35 109 99.5t37 135.5v68h100zM511 440h357v-83h-818v83h358v76h-254v274h613 v-82h-510v-109h517v-83h-263v-76z" />
<glyph unicode="&#xb3d4;" d="M250 158v-142h418v142h-418zM148 -66v306h622v-306h-622zM509 400h359v-84h-816v84h354v89h-253v302h615v-83h-513v-136h521v-83h-267v-89z" />
<glyph unicode="&#xb3d5;" d="M664 17v94h-409v-94h409zM664 192v86h102v-344h-614v344h103v-86h409zM509 412h360v-84h-817v84h354v89h-253v294h616v-83h-514v-128h522v-83h-268v-89z" />
<glyph unicode="&#xb3d7;" d="M513 252v-23q0 -82 81 -143.5t216 -79.5l-39 -81q-227 37 -311 175q-84 -138 -311 -175l-38 81q134 18 215 79.5t81 143.5v23h106zM512 383h356v-83h-816v83h357v95h-256v311h617v-83h-515v-145h524v-83h-267v-95z" />
<glyph unicode="&#xb3d9;" d="M457 2q207 0 207 85q0 41 -54 63t-153 22t-152.5 -22t-53.5 -63q0 -85 206 -85zM457 251q146 0 228.5 -43t82.5 -121t-82.5 -121.5t-228.5 -43.5t-228.5 43.5t-82.5 121.5t82.5 121t228.5 43zM511 390h357v-84h-816v84h356v90h-255v306h615v-82h-513v-141h519v-83h-263 v-90z" />
<glyph unicode="&#xb3db;" d="M763 154h-247q18 -56 95 -98t190 -55l-34 -76q-106 13 -186.5 51.5t-121.5 96.5q-40 -58 -121 -96.5t-189 -51.5l-33 76q115 13 191.5 54.5t93.5 98.5h-247v81h253v78h103v-78h253v-81zM511 431h357v-83h-817v83h357v83h-252v276h610v-83h-507v-110h513v-83h-261v-83z " />
<glyph unicode="&#xb3dd;" d="M254 75v-68h531v-76h-634v356h621v-75h-518v-64h500v-73h-500zM510 434h358v-82h-817v82h356v82h-253v276h617v-83h-514v-111h522v-82h-269v-82z" />
<glyph unicode="&#xb3e0;" d="M376 365v-164q131 5 222 18l8 -75q-207 -37 -551 -35l-15 85q108 0 233 3v168h-174v374h444v-84h-342v-207h350v-83h-175zM886 459v-85h-133v-450h-103v902h103v-367h133z" />
<glyph unicode="&#xb3e4;" d="M600 377l8 -74q-197 -37 -553 -39l-12 84q148 0 232 3v103h-167v312h423v-84h-318v-145h324v-83h-159v-98q116 5 222 21zM276 195v-171h507v-84h-611v255h104zM758 529h124v-85h-124v-299h-103v682h103v-298z" />
<glyph unicode="&#xb3e8;" d="M609 457l6 -70q-213 -33 -562 -33l-10 79q150 0 232 2v79h-161v268h423v-81h-320v-106h326v-81h-165v-75q144 7 231 18zM263 82v-72h530v-79h-632v225h501v65h-503v79h605v-218h-501zM764 619h118v-85h-118v-197h-104v489h104v-207z" />
<glyph unicode="&#xb3fc;" d="M329 364v-163q106 5 171 14l6 -75q-166 -31 -454 -31l-13 85q85 0 192 3v167h-149v375h384v-84h-283v-208h291v-83h-145zM725 826h98v-903h-98v451h-89v-407h-97v841h97v-350h89v368z" />
<glyph unicode="&#xb410;" d="M633 498v-221h-96v532h96v-227h89v245h98v-555h-98v226h-89zM497 398l6 -71q-159 -31 -445 -31l-12 81q122 0 194 3v94h-141v298h372v-83h-272v-132h275v-83h-137v-90q84 3 160 14zM702 235v-23q0 -69 46 -124.5t131 -80.5l-48 -76q-128 40 -180 153q-50 -117 -165 -161 q-118 43 -165 160q-54 -112 -179 -152l-48 76q84 25 130.5 81.5t46.5 123.5v23h99v-23q0 -55 29 -107t86 -87q57 34 86.5 87t29.5 107v23h101z" />
<glyph unicode="&#xb418;" d="M400 364v-163q136 5 235 17l8 -76q-221 -35 -575 -33l-13 85q115 0 242 3v167h-179v380h462v-84h-359v-213h363v-83h-184zM690 828h104v-907h-104v907z" />
<glyph unicode="&#xb41c;" d="M795 827v-679h-103v679h103zM628 364l7 -75q-225 -32 -567 -32l-14 83q130 0 245 4v111h-167v315h434v-84h-331v-147h336v-84h-169v-107q125 5 226 16zM303 24h520v-84h-623v255h103v-171z" />
<glyph unicode="&#xb420;" d="M797 826v-481h-103v481h103zM633 463l6 -71q-226 -32 -570 -32l-13 80q117 0 243 3v79h-164v267h426v-79h-320v-108h330v-80h-169v-75q130 5 231 16zM297 12h527v-81h-628v230h499v67h-501v80h603v-223h-500v-73z" />
<glyph unicode="&#xb428;" d="M631 416l7 -72q-211 -37 -569 -37l-13 81q156 0 243 3v95h-166v292h436v-84h-333v-125h339v-83h-173v-90q133 7 229 20zM300 154v-138h397v138h-397zM198 -66v302h600v-302h-600zM694 826h104v-549h-104v549z" />
<glyph unicode="&#xb429;" d="M628 431l7 -72q-211 -38 -568 -38l-14 81q157 0 245 3v86h-166v292h429v-84h-326v-125h333v-83h-167v-81q118 5 227 21zM695 16v88h-396v-88h396zM695 183v82h102v-331h-600v331h102v-82h396zM693 826h104v-522h-104v522z" />
<glyph unicode="&#xb42b;" d="M797 827v-639h-103v639h103zM629 401l8 -74q-226 -40 -570 -40l-13 83q137 0 246 5v100h-168v301h433v-84h-330v-135h335v-82h-167v-95q119 5 226 21zM545 240v-25q0 -76 80.5 -134.5t212.5 -74.5l-38 -80q-107 15 -187 58t-121 107q-40 -64 -121 -107t-188 -58l-38 80 q133 16 214 74.5t81 134.5v25h105z" />
<glyph unicode="&#xb434;" d="M376 325v-202h175v202h-175zM654 123h215v-85h-818v85h222v202h-122v429h618v-84h-515v-262h523v-83h-123v-202z" />
<glyph unicode="&#xb450;" d="M770 497v-83h-612v361h601v-83h-495v-195h506zM869 310v-85h-361v-300h-103v300h-356v85h820z" />
<glyph unicode="&#xb451;" d="M776 567v-83h-623v307h615v-83h-513v-141h521zM868 317h-357v-103h258v-292h-103v209h-525v83h266v103h-355v84h816v-84z" />
<glyph unicode="&#xb454;" d="M777 538v-84h-624v329h616v-83h-514v-162h522zM255 199v-175h527v-84h-630v259h103zM52 371h817v-83h-346v-165h-103v165h-368v83z" />
<glyph unicode="&#xb458;" d="M772 601v-82h-616v275h607v-83h-505v-110h514zM868 375h-358v-75h255v-216h-514v-73h540v-79h-642v225h515v66h-518v77h261v75h-358v83h819v-83z" />
<glyph unicode="&#xb460;" d="M776 572v-83h-623v302h615v-83h-513v-136h521zM668 17v141h-418v-141h418zM868 332h-358v-92h260v-306h-622v306h259v92h-355v83h816v-83z" />
<glyph unicode="&#xb461;" d="M777 584v-83h-624v294h616v-83h-514v-128h522zM664 17v89h-409v-89h409zM664 186v95h102v-347h-614v347h103v-95h409zM52 429h817v-84h-358v-116h-104v116h-355v84z" />
<glyph unicode="&#xb463;" d="M776 576v-83h-623v301h615v-84h-512v-134h520zM510 211v-23q0 -69 81 -119.5t216 -63.5l-35 -80q-231 26 -315 149q-86 -124 -316 -149l-34 80q134 13 215 63.5t81 119.5v23h107zM51 418h818v-83h-360v-89h-103v89h-355v83z" />
<glyph unicode="&#xb465;" d="M774 565v-83h-621v304h615v-82h-513v-139h519zM664 87q0 85 -207 85q-206 0 -206 -85t206 -85q207 0 207 85zM868 327h-357v-77q122 -8 189.5 -50t67.5 -113q0 -78 -82.5 -121t-228.5 -43t-228.5 43t-82.5 121q0 71 69 113.5t192 50.5v76h-355v83h816v-83z" />
<glyph unicode="&#xb46c;" d="M572 535v-84h-447v328h436v-84h-333v-160h344zM637 380l5 -75q-139 -17 -255 -22v-332h-103v328q-104 -4 -225 -4l-14 85q389 0 592 20zM701 826h103v-903h-103v210h-196v81h196v612z" />
<glyph unicode="&#xb480;" d="M517 372h179v455h103v-567h-103v42h-179v70zM546 619v-80h-411v266h408v-80h-305v-106h308zM273 266v135q-77 -3 -216 -3l-12 79q372 0 575 26l7 -70q-108 -18 -250 -27v-140h-104zM705 230v-14q0 -67 45.5 -123.5t129.5 -82.5l-48 -76q-127 40 -178 154 q-50 -119 -166 -162q-117 44 -165 159q-52 -110 -176 -151l-49 76q84 26 129.5 82.5t45.5 123.5v14h100v-14q0 -56 29.5 -108t85.5 -86q57 35 86.5 87t29.5 107v14h101z" />
<glyph unicode="&#xb488;" d="M463 535v-84h-365v305h363v-83h-263v-138h265zM499 392l8 -75q-58 -10 -184 -22v-299h-98v293q-64 -4 -175 -4l-13 85q285 0 462 22zM553 237v572h96v-843h-96v191h-156v80h156zM728 826h98v-902h-98v902z" />
<glyph unicode="&#xb49d;" d="M820 826v-595h-98v595h98zM411 371h144v440h96v-551h-96v41h-144v70zM470 610v-78h-358v253h357v-77h-257v-98h258zM235 247v148q-82 -5 -180 -5l-10 80q299 0 462 25l7 -70q-82 -18 -181 -24v-154h-98zM508 -1q216 0 216 77q0 76 -216 76t-216 -76q0 -77 216 -77z M508 229q154 0 238.5 -39.5t84.5 -113.5t-84.5 -114t-238.5 -40t-238.5 40t-84.5 114t84.5 113.5t238.5 39.5z" />
<glyph unicode="&#xb4a4;" d="M576 527v-83h-446v333h435v-83h-332v-167h343zM638 362l6 -76q-114 -17 -244 -25v-311h-104v306q-82 -3 -235 -3l-14 86q396 0 591 23zM695 826h103v-904h-103v904z" />
<glyph unicode="&#xb4a8;" d="M793 826v-683h-104v683h104zM567 553v-83h-428v307h422v-84h-319v-140h325zM300 170v140q-104 -5 -234 -5l-13 84q360 0 580 23l7 -74q-103 -15 -237 -23v-145h-103zM275 23h541v-83h-644v261h103v-178z" />
<glyph unicode="&#xb4ac;" d="M793 826v-487h-104v487h104zM559 613v-80h-417v270h413v-79h-309v-111h313zM293 10h529v-79h-631v228h500v68h-502v78h106v89q-81 -3 -229 -3l-12 79q383 0 581 24l7 -69q-108 -18 -243 -26v-94h394v-219h-500v-76z" />
<glyph unicode="&#xb4b5;" d="M560 595v-83h-418v285h414v-83h-311v-119h315zM300 250v116q-122 -3 -234 -3l-13 81q369 0 580 19l7 -72q-117 -13 -237 -21v-120h-103zM690 14v83h-406v-83h406zM690 175v82h103v-323h-611v323h102v-82h406zM689 827h104v-532h-104v532z" />
<glyph unicode="&#xb4b7;" d="M793 826v-649h-104v649h104zM567 577v-83h-429v288h427v-83h-324v-122h326zM279 188v147q-113 -3 -212 -3l-14 84q372 0 582 21l5 -75q-110 -14 -259 -23v-151h-102zM565 248v-36q0 -76 80 -133.5t213 -73.5l-38 -79q-106 14 -186.5 56.5t-120.5 106.5 q-41 -64 -122 -106.5t-187 -56.5l-38 79q132 16 213 73.5t81 133.5v36h105z" />
<glyph unicode="&#xb4b9;" d="M793 826v-569h-103v569h103zM563 575v-83h-421v290h416v-83h-313v-124h318zM493 2q96 0 149.5 22t53.5 62t-53.5 62t-149.5 22t-149.5 -22t-53.5 -62t53.5 -62t149.5 -22zM398 344v-101q45 6 95 6q143 0 224.5 -43t81.5 -120q0 -76 -82 -119.5t-224 -43.5t-224 43.5 t-82 119.5q0 88 108 132v121q-122 -3 -228 -3l-14 83q372 0 581 21l6 -74q-107 -14 -242 -22z" />
<glyph unicode="&#xb4c0;" d="M771 503v-83h-613v360h601v-83h-495v-194h507zM870 314v-85h-201v-306h-103v306h-211v-306h-103v306h-203v85h821z" />
<glyph unicode="&#xb4c4;" d="M776 543v-84h-623v324h616v-83h-514v-157h521zM253 194v-171h533v-83h-636v254h103zM52 378h817v-84h-202v-171h-102v171h-130v-171h-102v171h-281v84z" />
<glyph unicode="&#xb4c8;" d="M772 604v-82h-616v275h607v-83h-505v-110h514zM556 300v77h-187v-77h187zM867 377h-208v-77h106v-216h-514v-73h540v-79h-642v225h515v66h-518v77h120v77h-217v83h818v-83z" />
<glyph unicode="&#xb4d0;" d="M776 575v-83h-623v300h615v-83h-513v-134h521zM553 240v95h-182v-95h182zM668 17v141h-418v-141h418zM868 335h-213v-95h115v-306h-622v306h121v95h-217v83h816v-83z" />
<glyph unicode="&#xb4d5;" d="M774 570v-83h-621v301h615v-82h-513v-136h519zM567 244v83h-214v-82q45 7 104 7q57 0 110 -8zM457 2q207 0 207 85t-207 85q-206 0 -206 -85t206 -85zM868 327h-198v-111q98 -44 98 -129q0 -78 -82.5 -121t-228.5 -43t-228.5 43t-82.5 121q0 87 104 131v109h-198v83h816 v-83z" />
<glyph unicode="&#xb4dc;" d="M777 400v-83h-626v430h619v-84h-516v-263h523zM51 124h819v-85h-819v85z" />
<glyph unicode="&#xb4dd;" d="M776 563v-84h-623v315h615v-83h-513v-148h521zM141 133v83h628v-296h-103v213h-525zM52 392h816v-83h-816v83z" />
<glyph unicode="&#xb4e0;" d="M776 546v-84h-623v328h616v-83h-514v-161h521zM255 207v-183h528v-83h-631v266h103zM52 375h817v-84h-817v84z" />
<glyph unicode="&#xb4e3;" d="M775 575l1 -84h-622v309h613v-84h-510v-141h518zM254 161v-143h525v-84h-628v310h620v-83h-517zM52 410h817v-83h-817v83z" />
<glyph unicode="&#xb4e4;" d="M772 606v-83h-616v279h607v-83h-505v-113h514zM251 88v-76h540v-80h-642v231h515v70h-517v79h618v-224h-514zM52 461h817v-83h-817v83z" />
<glyph unicode="&#xb4e6;" d="M773 598v-82h-619v289h612v-83h-508v-124h515zM233 86v-79q135 0 214 15l8 -77q-76 -14 -267 -14h-51v225h194v69h-196v76h292v-215h-194zM567 227v-222h121v222h-121zM480 -69v370h295v-370h-295zM51 450h816v-82h-816v82z" />
<glyph unicode="&#xb4ec;" d="M776 573v-83h-623v310h615v-83h-513v-144h521zM250 159v-140h418v140h-418zM148 -64v305h622v-305h-622zM52 411h816v-83h-816v83z" />
<glyph unicode="&#xb4ed;" d="M777 586v-83h-624v297h616v-84h-514v-130h522zM664 19v94h-409v-94h409zM664 194v86h102v-344h-614v344h103v-86h409zM52 426h817v-84h-817v84z" />
<glyph unicode="&#xb4ef;" d="M779 561v-82h-626v317h617v-83h-515v-152h524zM513 253v-24q0 -81 81 -142.5t216 -79.5l-39 -80q-108 17 -189 62t-122 112q-41 -67 -122 -112t-189 -62l-38 80q134 18 215 79.5t81 142.5v24h106zM52 398h816v-84h-816v84z" />
<glyph unicode="&#xb4f1;" d="M774 562v-83h-621v316h615v-83h-513v-150h519zM457 3q207 0 207 85q0 41 -54 63t-153 22t-152.5 -22t-53.5 -63q0 -85 206 -85zM457 252q146 0 228.5 -43t82.5 -121t-82.5 -121.5t-228.5 -43.5t-228.5 43.5t-82.5 121.5t82.5 121t228.5 43zM52 404h816v-85h-816v85z" />
<glyph unicode="&#xb4f8;" d="M580 458v-83h-456v366h445v-83h-342v-200h353zM65 133l-12 85q386 0 586 23l7 -76q-220 -32 -581 -32zM690 827h104v-905h-104v905z" />
<glyph unicode="&#xb514;" d="M209 658v-430q252 2 397 29l11 -86q-158 -29 -435 -29h-75v601h430v-85h-328zM690 827h104v-906h-104v906z" />
<glyph unicode="&#xb515;" d="M612 453l10 -83q-91 -18 -185.5 -24t-256.5 -6h-76v414h426v-84h-323v-246q259 0 405 29zM187 160v83h608v-321h-103v238h-505zM692 825h103v-535h-103v535z" />
<glyph unicode="&#xb518;" d="M795 826v-656h-104v656h104zM581 424l9 -83q-159 -30 -414 -30h-72v448h414v-84h-312v-280q235 2 375 29zM303 24h517v-84h-620v284h103v-200z" />
<glyph unicode="&#xb51b;" d="M795 826v-513h-103v513h103zM611 478l10 -83q-157 -31 -441 -31h-76v401h426v-83h-323v-234q262 1 404 30zM308 18h510v-83h-613v334h596v-83h-493v-168z" />
<glyph unicode="&#xb51c;" d="M795 826v-457h-104v457h104zM609 520l11 -81q-164 -32 -440 -32h-76v368h425v-82h-322v-205q257 1 402 32zM306 10h516v-81h-618v240h489v79h-491v80h593v-234h-489v-84z" />
<glyph unicode="&#xb524;" d="M611 477l10 -83q-156 -32 -441 -32h-76v400h426v-84h-323v-232q257 1 404 31zM305 182v-165h389v165h-389zM204 -65v329h591v-329h-591zM692 826h103v-517h-103v517z" />
<glyph unicode="&#xb525;" d="M611 488l10 -83q-156 -32 -441 -32h-76v398h426v-84h-323v-230q257 1 404 31zM693 17v98h-386v-98h386zM693 196v100h102v-362h-590v362h102v-100h386zM692 827h103v-488h-103v488z" />
<glyph unicode="&#xb527;" d="M795 826v-610h-103v610h103zM609 451l10 -83q-164 -31 -439 -31h-76v416h423v-84h-320v-248q257 1 402 30zM550 280v-27q0 -89 81 -157.5t211 -89.5l-40 -80q-106 19 -185.5 69t-119.5 123q-40 -73 -120 -123t-186 -69l-41 80q131 21 212 89.5t81 157.5v27h107z" />
<glyph unicode="&#xb528;" d="M795 826v-523h-103v523h103zM611 473l11 -83q-162 -32 -442 -32h-76v405h427v-83h-324v-238q254 1 404 31zM700 277v-47q0 -73 45 -133.5t130 -88.5l-50 -75q-128 44 -178 162q-51 -124 -165 -170q-118 46 -166 167q-53 -116 -173 -159l-51 75q84 30 129.5 91.5 t45.5 130.5v47h100v-47q0 -60 28.5 -115t85.5 -90q57 38 87 94t30 111v47h102z" />
<glyph unicode="&#xb529;" d="M795 826v-548h-103v548h103zM611 465l10 -83q-91 -19 -186.5 -25t-254.5 -6h-76v406h426v-84h-323v-238q262 1 404 30zM493 3q96 0 149.5 24.5t53.5 70.5q0 45 -53.5 69.5t-149.5 24.5t-149.5 -24.5t-53.5 -69.5q0 -46 53.5 -70.5t149.5 -24.5zM493 273q142 0 224 -46.5 t82 -128.5q0 -83 -82 -129.5t-224 -46.5t-224 46.5t-82 129.5q0 82 82 128.5t224 46.5z" />
<glyph unicode="&#xb52a;" d="M795 826v-518h-103v518h103zM611 482l9 -84q-168 -30 -440 -30h-76v396h427v-83h-324v-228q255 1 404 29zM805 184h-245q13 -65 89 -115t192 -66l-36 -77q-104 15 -182.5 57.5t-118.5 106.5q-39 -63 -117 -106t-181 -58l-38 77q116 17 192 67t89 114h-241v82h597v-82z " />
<glyph unicode="&#xb530;" d="M175 650v-412q73 4 135 15l9 -84q-83 -17 -203 -17h-42v581h229v-83h-128zM454 650v-413q95 3 159 18l10 -84q-78 -19 -226 -19h-45v581h241v-83h-139zM887 479v-86h-120v-471h-104v905h104v-348h120z" />
<glyph unicode="&#xb531;" d="M620 448l10 -85q-80 -18 -228 -18h-46v409h239v-83h-141v-241q97 1 166 18zM320 448l8 -85q-84 -18 -207 -18h-42v409h228v-83h-131v-240q77 2 144 17zM165 163v83h609v-325h-104v242h-505zM883 591v-85h-109v-221h-103v541h103v-235h109z" />
<glyph unicode="&#xb534;" d="M620 419l10 -85q-80 -18 -228 -18h-46v428h239v-84h-141v-259q97 1 166 18zM320 416l8 -84q-84 -17 -207 -17h-42v429h228v-84h-131v-260q75 2 144 16zM285 226v-202h522v-84h-625v286h103zM774 564h109v-85h-109v-311h-103v659h103v-263z" />
<glyph unicode="&#xb538;" d="M621 509l9 -83q-75 -17 -228 -17h-46v362h239v-82h-140v-198q97 1 166 18zM320 507l8 -83q-79 -17 -207 -17h-42v364h229v-82h-131v-199q78 4 143 17zM277 95v-80h529v-81h-631v236h497v75h-499v81h601v-231h-497zM774 638h109v-85h-109v-189h-103v463h103v-189z" />
<glyph unicode="&#xb540;" d="M620 458l10 -84q-80 -18 -228 -18h-46v406h239v-82h-140v-239q96 1 165 17zM320 458l8 -84q-84 -18 -207 -18h-42v406h228v-82h-130v-238q74 2 143 16zM280 182v-166h393v166h-393zM179 -66v329h595v-329h-595zM883 612v-85h-109v-219h-103v518h103v-214h109z" />
<glyph unicode="&#xb541;" d="M621 472l10 -84q-75 -18 -229 -18h-46v400h239v-83h-140v-232q96 1 166 17zM322 470l9 -84q-89 -18 -209 -18h-43v402h228v-83h-130v-233q78 2 145 16zM672 18v97h-390v-97h390zM672 197v102h102v-365h-594v365h102v-102h390zM883 627v-85h-109v-206h-104v490h104v-199 h109z" />
<glyph unicode="&#xb543;" d="M620 440l10 -84q-80 -18 -228 -18h-46v413h239v-83h-140v-245q96 1 165 17zM320 439l8 -85q-84 -17 -207 -17h-42v414h228v-83h-130v-245q74 2 143 16zM536 276v-24q0 -89 81.5 -156.5t213.5 -87.5l-42 -82q-105 18 -186 68t-121 122q-40 -73 -120.5 -122.5t-186.5 -67.5 l-40 82q130 20 212 87.5t82 156.5v24h107zM774 580h109v-85h-109v-280h-103v611h103v-246z" />
<glyph unicode="&#xb544;" d="M620 458l10 -84q-80 -18 -228 -18h-46v406h239v-82h-140v-239q96 1 165 17zM320 456l8 -84q-84 -18 -207 -18h-42v408h228v-82h-130v-240q66 2 143 16zM693 279v-43q0 -74 45.5 -136t129.5 -90l-51 -76q-126 46 -176 166q-50 -126 -164 -173q-118 45 -166 169 q-53 -116 -172 -162l-51 76q82 31 128 94t46 132v43h99v-43q0 -62 28.5 -117.5t85.5 -91.5q57 38 87 95.5t30 113.5v43h101zM774 606h109v-85h-109v-211h-103v516h103v-220z" />
<glyph unicode="&#xb545;" d="M620 451l10 -84q-80 -18 -228 -18h-46v408h239v-83h-140v-240q96 1 165 17zM320 449l8 -84q-84 -18 -207 -18h-42v410h228v-83h-130v-241q66 2 143 16zM475 4q97 0 150 24t53 69q0 44 -53 68.5t-150 24.5t-149.5 -24.5t-52.5 -68.5q0 -45 52.5 -69t149.5 -24zM475 271 q143 0 225 -46t82 -128t-82 -128t-225 -46t-224.5 46t-81.5 128q0 81 82 127.5t224 46.5zM774 597h109v-85h-109v-228h-103v541h103v-228z" />
<glyph unicode="&#xb54b;" d="M621 527l9 -82q-75 -17 -228 -17h-46v345h239v-83h-140v-180q96 1 166 17zM320 525l8 -82q-79 -17 -207 -17h-42v347h228v-83h-130v-181q66 2 143 16zM475 -5q153 0 153 59q0 60 -153 60q-152 0 -152 -60q0 -59 152 -59zM475 188q120 0 188 -35.5t68 -98.5t-68 -98 t-188 -35q-119 0 -187.5 35t-68.5 98t68.5 98.5t187.5 35.5zM527 384v-81h269v-78h-641v78h269v81h103zM774 639h109v-85h-109v-195h-103v467h103v-187z" />
<glyph unicode="&#xb54c;" d="M166 632v-395q44 1 102 14l9 -85q-76 -16 -168 -16h-37v565h192v-83h-98zM394 632v-396q67 4 120 17l8 -85q-75 -18 -182 -18h-39v565h197v-83h-104zM736 826h97v-903h-97v459h-89v-416h-95v843h95v-343h89v360z" />
<glyph unicode="&#xb54d;" d="M512 432l8 -84q-77 -16 -178 -16h-38v422h196v-83h-103v-254q60 4 115 15zM269 432l8 -84q-75 -16 -167 -16h-37v422h189v-83h-95v-253q42 1 102 14zM192 161v84h638v-320h-103v236h-535zM734 826h96v-540h-96v230h-84v-225h-95v518h95v-210h84v227z" />
<glyph unicode="&#xb550;" d="M650 486v-303h-95v626h95v-240h84v257h96v-670h-96v330h-84zM512 412l8 -84q-77 -16 -178 -16h-38v429h196v-82h-103v-262q60 4 115 15zM269 412l8 -84q-75 -16 -167 -16h-37v429h189v-82h-95v-261q42 1 102 14zM315 24h539v-84h-642v290h103v-206z" />
<glyph unicode="&#xb554;" d="M650 547v-179h-95v442h95v-179h84v196h96v-464h-96v184h-84zM512 494l8 -82q-72 -16 -178 -16h-38v378h196v-82h-103v-213q60 4 115 15zM269 494l8 -82q-70 -16 -168 -16h-36v378h189v-82h-95v-212q52 3 102 14zM314 15h546v-81h-648v235h517v72h-519v81h620v-229h-516 v-78z" />
<glyph unicode="&#xb55c;" d="M512 458l8 -84q-77 -16 -178 -16h-38v403h196v-82h-103v-236q60 4 115 15zM269 458l8 -84q-75 -16 -167 -16h-37v403h189v-82h-95v-235q42 1 102 14zM312 183v-166h417v166h-417zM211 -66v331h619v-331h-619zM734 826h96v-522h-96v221h-84v-215h-95v499h95v-200h84v217z " />
<glyph unicode="&#xb55d;" d="M512 471l8 -84q-72 -16 -178 -16h-38v394h196v-83h-103v-226q60 4 115 15zM269 470l8 -83q-70 -16 -167 -16h-37v394h189v-83h-95v-226q52 3 102 14zM728 17v99h-411v-99h411zM728 197v96h102v-359h-615v359h102v-96h411zM734 826h96v-494h-96v205h-84v-200h-95v472h95 v-188h84v205z" />
<glyph unicode="&#xb55f;" d="M650 510v-217h-95v516h95v-216h84v233h96v-611h-96v295h-84zM512 433l8 -84q-77 -16 -178 -16h-38v420h196v-82h-103v-253q60 4 115 15zM269 432l8 -83q-70 -16 -167 -16h-37v420h189v-82h-95v-253q52 3 102 14zM567 263v-31q0 -79 84.5 -143.5t215.5 -82.5l-38 -80 q-106 16 -188 62.5t-125 114.5q-42 -68 -125 -114.5t-189 -62.5l-37 80q130 18 215 82.5t85 143.5v31h102z" />
<glyph unicode="&#xb560;" d="M650 524v-210h-95v495h95v-201h84v218h96v-520h-96v218h-84zM512 452l8 -84q-77 -16 -178 -16h-38v407h196v-82h-103v-240q60 4 115 15zM269 452l8 -84q-75 -16 -167 -16h-37v407h189v-82h-95v-239q42 1 102 14zM715 270v-39q0 -73 45.5 -134.5t130.5 -89.5l-50 -76 q-130 46 -178 164q-50 -125 -166 -171q-117 45 -166 168q-52 -116 -174 -161l-50 76q84 30 129.5 92.5t45.5 131.5v39h100v-39q0 -61 28.5 -116.5t84.5 -91.5q58 39 88.5 96t30.5 112v39h101z" />
<glyph unicode="&#xb561;" d="M650 516v-212h-95v505h95v-209h84v226h96v-548h-96v238h-84zM512 449l8 -84q-77 -16 -178 -16h-38v403h196v-83h-103v-235q60 4 115 15zM271 447l10 -84q-77 -16 -171 -16h-37v405h193v-83h-99v-237q45 3 104 15zM518 3q101 0 156.5 24t55.5 68t-55.5 67.5t-156.5 23.5 t-156.5 -23.5t-55.5 -67.5t55.5 -68t156.5 -24zM518 267q148 0 232 -45.5t84 -126.5t-84 -127t-232 -46t-232.5 46t-84.5 127t84.5 126.5t232.5 45.5z" />
<glyph unicode="&#xb5a0;" d="M177 655v-418q73 2 127 14l11 -84q-76 -16 -198 -16h-42v588h227v-84h-125zM450 655v-419q103 2 175 18l9 -83q-84 -20 -238 -20h-47v588h244v-84h-143zM706 826h104v-904h-104v497h-154v84h154v323z" />
<glyph unicode="&#xb5a1;" d="M626 438l9 -84q-82 -18 -240 -18h-47v423h250v-83h-148v-256q105 1 176 18zM309 437l8 -85q-79 -16 -206 -16h-42v423h233v-83h-131v-255q73 2 138 16zM182 166v83h627v-328h-102v245h-525zM706 826h103v-536h-103v225h-147v84h147v227z" />
<glyph unicode="&#xb5a4;" d="M562 582h144v243h103v-655h-103v329h-144v83zM626 408l9 -83q-82 -19 -240 -19h-47v447h251v-82h-149v-281q106 1 176 18zM310 407l9 -84q-82 -17 -208 -17h-42v447h233v-82h-131v-280q76 3 139 16zM299 24h532v-84h-635v284h103v-200z" />
<glyph unicode="&#xb5a8;" d="M557 634h149v192h103v-463h-103v193h-149v78zM626 493l9 -81q-82 -18 -240 -18h-47v383h250v-81h-148v-221q105 1 176 18zM310 492l9 -81q-84 -17 -208 -17h-42v383h232v-81h-130v-220q74 2 139 16zM297 15h541v-81h-644v235h512v72h-514v81h617v-228h-512v-79z" />
<glyph unicode="&#xb5aa;" d="M626 487l8 -81q-81 -18 -239 -18h-47v388h250v-81h-148v-226q105 1 176 18zM310 486l9 -81q-84 -17 -208 -17h-42v388h232v-81h-130v-225q77 4 139 16zM264 94v-82q136 2 214 14l9 -77q-90 -15 -272 -15h-50v234h197v70h-199v77h299v-221h-198zM601 239v-229h118v229 h-118zM512 -66v381h297v-381h-297zM706 826h103v-469h-103v196h-149v79h149v194z" />
<glyph unicode="&#xb5ab;" d="M626 488l8 -80q-80 -19 -239 -19h-47v387h250v-81h-148v-225q105 1 176 18zM310 487l9 -81q-84 -17 -208 -17h-42v387h232v-81h-130v-224q77 4 139 16zM264 91v-79q136 2 213 15l10 -78q-84 -15 -272 -15h-51v230h198v68h-200v77h299v-218h-197zM716 14v118h-112v-118 h112zM716 210v107h93v-383h-297v383h92v-107h112zM706 826h103v-469h-103v196h-149v79h149v194z" />
<glyph unicode="&#xb5b0;" d="M626 451l9 -84q-82 -18 -240 -18h-47v415h250v-82h-148v-249q105 1 176 18zM310 448l9 -84q-84 -17 -207 -17h-43v417h232v-82h-130v-250q77 4 139 16zM300 185v-168h408v168h-408zM198 -66v333h611v-333h-611zM706 826h103v-517h-103v215h-147v84h147v218z" />
<glyph unicode="&#xb5b1;" d="M626 462l9 -83q-82 -19 -240 -19h-47v412h250v-82h-148v-246q105 1 176 18zM309 460l8 -85q-79 -16 -206 -16h-42v413h233v-82h-131v-246q73 2 138 16zM707 17v100h-405v-100h405zM707 197v99h102v-362h-609v362h102v-99h405zM706 826h103v-491h-103v200h-147v83h147v208 z" />
<glyph unicode="&#xb5b3;" d="M559 596h147v230h103v-614h-103v301h-147v83zM626 433l9 -83q-82 -19 -240 -19h-47v429h250v-83h-148v-262q105 1 176 18zM310 432l9 -84q-84 -17 -207 -17h-43v429h233v-83h-131v-261q77 4 139 16zM548 271v-31q0 -84 83 -149.5t215 -84.5l-38 -80q-108 17 -190.5 65 t-123.5 119q-42 -71 -123.5 -119.5t-187.5 -64.5l-40 80q130 19 214.5 86t84.5 148v31h106z" />
<glyph unicode="&#xb5b4;" d="M559 605h147v221h103v-516h-103v211h-147v84zM626 445l9 -83q-77 -18 -240 -18h-47v420h250v-83h-149v-253q109 2 177 17zM310 443l9 -84q-84 -17 -207 -17h-43v422h233v-83h-131v-254q74 2 139 16zM702 270v-35q0 -75 45.5 -137t130.5 -89l-52 -75q-126 45 -176 164 q-50 -125 -165 -173q-117 46 -166 170q-53 -117 -173 -161l-52 75q83 30 129.5 93t46.5 133v35h100v-35q0 -61 28.5 -117t84.5 -93q57 39 87 96.5t30 113.5v35h102z" />
<glyph unicode="&#xb5b5;" d="M559 603h146v223h104v-545h-104v239h-146v83zM626 443l9 -83q-77 -18 -240 -18h-47v420h250v-83h-148v-253q109 2 176 17zM310 441l9 -84q-84 -17 -207 -17h-43v422h232v-83h-130v-254q74 2 139 16zM503 3q98 0 152 24t54 67t-54 66.5t-152 23.5q-99 0 -152.5 -23.5 t-53.5 -66.5t54 -67t152 -24zM503 265q144 0 227 -45.5t83 -125.5q0 -81 -82.5 -126t-227.5 -45t-228 45t-83 126q0 80 83 125.5t228 45.5z" />
<glyph unicode="&#xb5bb;" d="M564 644h142v182h103v-481h-103v221h-142v78zM626 505l8 -81q-82 -18 -241 -18h-46v379h251v-81h-150v-217q106 1 178 18zM310 504l9 -81q-84 -17 -208 -17h-42v379h232v-81h-130v-216q74 2 139 16zM495 -7q150 0 150 57q0 58 -150 58t-150 -58q0 -57 150 -57zM495 179 q123 0 191 -33.5t68 -95.5t-67.5 -95t-191.5 -33q-123 0 -191 33t-68 95t68 95.5t191 33.5zM548 293h274v-79h-652v79h274v80h104v-80z" />
<glyph unicode="&#xb5bc;" d="M166 634v-398q52 4 99 14l8 -85q-69 -15 -164 -15h-37v567h185v-83h-91zM389 634v-397q72 4 128 18l9 -85q-83 -19 -190 -19h-40v566h204v-83h-111zM566 493v315h95v-840h-95v440h-114v85h114zM736 826h97v-903h-97v903z" />
<glyph unicode="&#xb5bd;" d="M460 600h108v209h95v-523h-95v231h-108v83zM519 433l10 -84q-87 -18 -193 -18h-39v428h202v-83h-109v-260q63 3 129 17zM262 430l9 -83q-68 -16 -162 -16h-36v428h184v-83h-90v-259q47 3 95 13zM196 161v83h634v-320h-103v237h-531zM734 826h96v-545h-96v545z" />
<glyph unicode="&#xb5c0;" d="M830 826v-678h-96v678h96zM461 574h107v233h95v-635h-95v319h-107v83zM519 401l10 -84q-87 -18 -193 -18h-39v447h202v-83h-109v-279q63 3 129 17zM262 399l9 -84q-73 -16 -162 -16h-36v447h184v-83h-90v-278q49 4 95 14zM317 24h538v-84h-642v288h104v-204z" />
<glyph unicode="&#xb5c4;" d="M830 827v-475h-97v475h97zM464 629h104v179h95v-448h-95v189h-104v80zM515 487l11 -83q-82 -17 -193 -17h-40v385h207v-82h-114v-220q63 3 129 17zM259 485l8 -83q-67 -15 -159 -15h-35v385h183v-82h-89v-219q49 4 92 14zM314 12h543v-81h-645v234h516v71h-518v80h620 v-226h-516v-78z" />
<glyph unicode="&#xb5cc;" d="M460 607h108v200h95v-495h-95v211h-108v84zM519 450l10 -84q-87 -18 -193 -18h-39v420h202v-83h-109v-252q63 3 129 17zM262 447l9 -83q-68 -16 -162 -16h-36v420h184v-83h-90v-251q47 3 95 13zM312 183v-166h417v166h-417zM211 -66v331h619v-331h-619zM734 826h96v-524 h-96v524z" />
<glyph unicode="&#xb5cd;" d="M461 621h107v187h94v-473h-94v202h-107v84zM519 467l10 -83q-82 -18 -193 -18h-39v408h202v-82h-109v-241q60 2 129 16zM262 465l9 -84q-68 -15 -162 -15h-36v408h184v-82h-90v-241q49 4 95 14zM728 17v100h-411v-100h411zM728 198v95h102v-359h-615v359h102v-95h411z M734 826h96v-496h-96v496z" />
<glyph unicode="&#xb5cf;" d="M830 826v-611h-96v611h96zM460 596h108v211h95v-508h-95v214h-108v83zM518 431l11 -83q-84 -20 -193 -20h-39v428h202v-83h-109v-260q66 3 128 18zM262 426l9 -83q-68 -16 -162 -16h-36v429h184v-83h-90v-260q47 3 95 13zM568 265v-31q0 -81 84 -145.5t215 -83.5l-38 -79 q-105 16 -187.5 63t-125.5 115q-42 -68 -124 -115t-188 -63l-39 79q131 19 215.5 83.5t84.5 145.5v31h103z" />
<glyph unicode="&#xb5d0;" d="M830 826v-521h-96v521h96zM460 606h108v201h95v-492h-95v208h-108v83zM519 443l10 -84q-87 -18 -193 -18h-39v422h202v-83h-109v-254q63 3 129 17zM262 441l9 -84q-73 -16 -162 -16h-36v422h184v-83h-90v-253q49 4 95 14zM715 270v-39q0 -74 45.5 -135t130.5 -89l-50 -76 q-129 45 -178 163q-50 -123 -165 -171q-119 46 -167 168q-52 -115 -174 -160l-50 76q84 30 129.5 92t45.5 132v39h100v-39q0 -61 29 -116.5t85 -92.5q58 39 88 96t30 113v39h101z" />
<glyph unicode="&#xb5d1;" d="M830 826v-556h-96v556h96zM460 602h108v205h94v-507h-94v218h-108v84zM519 439l10 -84q-82 -17 -193 -17h-39v423h202v-83h-110v-255q59 2 130 16zM265 436l8 -84q-74 -16 -164 -16h-36v425h184v-83h-90v-256q51 4 98 14zM518 3q102 0 157 23t55 67q0 43 -55 66.5 t-157 23.5t-157 -23.5t-55 -66.5q0 -44 55 -67t157 -23zM518 263q148 0 232 -45t84 -125q0 -81 -84 -125.5t-232 -44.5q-149 0 -233 44.5t-84 125.5q0 80 84.5 125t232.5 45z" />
<glyph unicode="&#xb5d8;" d="M181 659v-437q65 4 121 15l10 -85q-80 -16 -193 -16h-41v606h223v-83h-120zM448 659v-438q104 3 173 19l10 -85q-87 -19 -238 -19h-47v606h249v-83h-147zM706 827h103v-904h-103v388h-149v84h149v113h-149v84h149v235z" />
<glyph unicode="&#xb5ec;" d="M574 668h132v158h103v-527h-103v140h-132v81h132v66h-132v82zM613 433l10 -84q-82 -18 -240 -18h-47v431h246v-83h-145v-264q105 1 176 18zM298 431l8 -84q-76 -16 -196 -16h-41v431h222v-83h-120v-263q69 4 127 15zM702 270v-35q0 -75 45.5 -137t130.5 -89l-52 -75 q-126 45 -176 164q-50 -125 -165 -173q-117 46 -166 170q-53 -117 -173 -161l-52 75q83 30 129.5 93t46.5 133v35h100v-35q0 -61 28 -117t85 -93q57 39 87 97t30 113v35h102z" />
<glyph unicode="&#xb610;" d="M810 422v-83h-326v408h317v-84h-214v-241h223zM436 447l9 -85q-109 -23 -274 -23h-53v407h310v-84h-207v-238q123 3 215 23zM509 118h360v-85h-818v85h355v179h103v-179z" />
<glyph unicode="&#xb611;" d="M139 124v84h624v-290h-103v206h-521zM512 378h356v-83h-818v83h358v120q-90 -14 -230 -14h-52v307h307v-83h-204v-141q122 3 213 22l10 -82l-5 -1h38v285h306v-83h-203v-141h207v-83h-283v-106z" />
<glyph unicode="&#xb614;" d="M259 213v-189h518v-84h-621v273h103zM512 367h355v-83h-817v83h358v123q-84 -14 -230 -14h-52v310h307v-82h-204v-146q121 3 213 22l10 -82l-5 -1h38v289h306v-82h-203v-146h206v-82h-282v-109z" />
<glyph unicode="&#xb618;" d="M251 84v-73h540v-79h-642v225h515v66h-517v77h618v-216h-514zM511 444h357v-82h-818v82h357v97q-90 -14 -229 -14h-52v269h307v-81h-204v-107q122 3 213 22l10 -76h33v242h306v-81h-203v-107h207v-81h-284v-83z" />
<glyph unicode="&#xb625;" d="M457 1q207 0 207 83q0 40 -54 61.5t-153 21.5t-152.5 -21.5t-53.5 -61.5q0 -83 206 -83zM457 246q147 0 229 -42.5t82 -119.5q0 -78 -82 -120t-229 -42t-229 42.5t-82 119.5t82.5 119.5t228.5 42.5zM511 388h358v-84h-819v84h358v105q-90 -14 -230 -14h-52v308h307v-83 h-204v-142q122 3 214 22l10 -82h32v285h305v-83h-202v-142h206v-83h-283v-91z" />
<glyph unicode="&#xb62c;" d="M597 466v-83h-246v355h239v-84h-137v-188h144zM314 482l8 -82q-80 -17 -201 -17h-40v355h229v-84h-128v-187q68 2 132 15zM383 348v-155q134 5 230 17l7 -75q-215 -34 -567 -32l-12 85q155 0 239 2v158h103zM885 456v-85h-119v-449h-103v904h103v-370h119z" />
<glyph unicode="&#xb634;" d="M609 462l6 -70q-215 -33 -567 -33l-9 80q150 0 232 2v85q-52 -8 -149 -8h-40v261h225v-78h-124v-104q63 1 131 16l9 -72h26v238h228v-78h-127v-106h133v-77h-208v-73q136 5 234 17zM257 86v-75h536v-80h-639v229h503v69h-505v79h608v-222h-503zM761 622h120v-84h-120 v-193h-104v481h104v-204z" />
<glyph unicode="&#xb648;" d="M512 469v-82h-205v349h200v-82h-107v-185h112zM274 484l9 -82q-75 -17 -168 -17h-36v351h192v-82h-99v-186q52 3 102 16zM337 357v-132q102 5 183 15l5 -75q-170 -32 -472 -32l-12 85q89 0 198 3v136h98zM739 826h97v-902h-97v460h-85v-418h-95v842h95v-340h85v358z" />
<glyph unicode="&#xb664;" d="M627 464v-83h-247v357h241v-84h-139v-190h145zM344 482l8 -83q-82 -18 -209 -18h-42v357h233v-84h-132v-190q79 4 142 18zM414 353v-153q140 5 240 18l7 -75q-223 -35 -595 -33l-13 85q213 0 258 1v157h103zM705 826h103v-903h-103v903z" />
<glyph unicode="&#xb668;" d="M798 825v-667h-104v667h104zM636 371l8 -75q-219 -33 -579 -33l-14 84q165 0 254 3v117q-64 -12 -165 -12h-41v306h226v-82h-124v-140q72 4 131 17l9 -81h26v286h237v-82h-136v-141h143v-83h-202v-102q140 7 227 18zM299 20h523v-83h-627v264h104v-181z" />
<glyph unicode="&#xb69c;" d="M805 494v-83h-318v364h310v-84h-207v-197h215zM445 516l7 -83q-106 -22 -276 -22h-52v363h311v-84h-209v-195q119 2 219 21zM869 319l-1 -84h-360v-313h-103v313h-355v84h819z" />
<glyph unicode="&#xb69d;" d="M795 565v-83h-310v311h306v-83h-201v-145h205zM443 587l9 -82q-108 -23 -272 -23h-52v311h307v-83h-202v-145q119 3 210 22zM868 326h-357v-106h252v-298h-103v215h-521v83h268v106h-357v84h818v-84z" />
<glyph unicode="&#xb6a0;" d="M796 541v-83h-311v327h306v-83h-203v-161h208zM445 563l7 -82q-108 -23 -272 -23h-52v327h307v-83h-204v-161q121 3 214 22zM252 209v-185h525v-84h-628v269h103zM50 379h818v-83h-350v-167h-104v167h-364v83z" />
<glyph unicode="&#xb6a4;" d="M797 601v-81h-312v277h306v-81h-203v-115h209zM447 624l9 -81q-110 -23 -276 -23h-52v277h307v-81h-204v-115q124 3 216 23zM868 377h-358v-77h255v-216h-514v-73h540v-79h-642v225h515v66h-517v77h260v77h-357v83h818v-83z" />
<glyph unicode="&#xb6ab;" d="M796 606v-82h-311v272h306v-81h-203v-109h208zM446 629l10 -81q-115 -24 -276 -24h-52v272h307v-81h-204v-109q124 3 215 23zM641 -8q31 0 49.5 13t18.5 36t-18.5 36t-49.5 13t-49.5 -13t-18.5 -36t18.5 -36t49.5 -13zM641 158q69 0 112.5 -31.5t43.5 -85.5t-43.5 -86 t-112.5 -32t-112.5 32t-43.5 86t43.5 85.5t112.5 31.5zM691 329v-74h143v-74h-384v74h141v74h100zM50 471h817v-83h-359v-99h-88v-205h-192v-73q143 0 228 14l9 -76q-84 -15 -282 -15h-53v222h193l-1 66h-195v76h277v90h-354v83z" />
<glyph unicode="&#xb6ac;" d="M796 569v-82h-311v305h305v-83h-202v-140h208zM446 591l9 -82q-106 -22 -275 -22h-52v305h309v-83h-206v-140q122 3 215 22zM668 17v140h-418v-140h418zM868 332h-357v-93h259v-304h-622v304h259v93h-355v83h816v-83z" />
<glyph unicode="&#xb6b1;" d="M796 568v-83h-311v302h305v-83h-202v-136h208zM447 591l9 -83q-110 -23 -275 -23h-53v302h309v-83h-206v-136q122 3 216 23zM664 86q0 40 -53.5 62t-153.5 22q-99 0 -152.5 -22t-53.5 -62q0 -84 206 -84q207 0 207 84zM866 335h-355v-88q123 -8 190 -49t67 -112 q0 -78 -82 -121t-229 -43q-146 0 -228.5 43t-82.5 121q0 71 68.5 112.5t192.5 49.5v87h-357v83h816v-83z" />
<glyph unicode="&#xb6d4;" d="M505 522l1 -83h-204v315h199v-84h-108v-148h112zM274 537l8 -81q-66 -16 -172 -16h-37v314h195v-84h-104v-148q59 3 110 15zM526 388l6 -74q-91 -18 -201 -24v-297h-98v291q-89 -4 -184 -4l-12 84q316 0 489 24zM570 232v576h94v-840h-94v183h-162v81h162zM738 826h96 v-904h-96v904z" />
<glyph unicode="&#xb6f0;" d="M623 515v-83h-246v330h240v-83h-138v-164h144zM341 532l8 -82q-82 -18 -208 -18h-42v330h233v-83h-132v-163q74 2 141 16zM654 360l6 -76q-116 -18 -255 -26v-307h-103v302q-86 -2 -243 -2l-13 85q404 0 608 24zM703 826h103v-903h-103v903z" />
<glyph unicode="&#xb6f4;" d="M807 827v-684h-103v684h103zM623 548v-83h-245v305h236v-82h-134v-140h143zM345 566l9 -83q-83 -18 -205 -18h-42v305h229v-82h-127v-139q67 2 136 17zM322 168v141q-123 -4 -258 -4l-13 84q385 0 601 24l6 -75q-77 -12 -233 -24v-146h-103zM271 24h557v-84h-660v264h103 v-180z" />
<glyph unicode="&#xb6f8;" d="M807 826v-477h-103v477h103zM622 605v-80h-244v264h238v-80h-137v-104h143zM344 623l8 -80q-83 -18 -204 -18h-41v264h228v-80h-127v-103q66 2 136 17zM285 10h551v-79h-653v229h522v71h-523v78h134v80q-87 -2 -247 -2l-13 79q401 0 599 19l6 -72q-106 -13 -241 -20v-84 h387v-221h-522v-78z" />
<glyph unicode="&#xb700;" d="M622 573v-82h-244v285h238v-83h-136v-120h142zM344 591l8 -83q-82 -17 -204 -17h-41v285h228v-83h-127v-119q64 2 136 17zM706 16v135h-415v-135h415zM419 352v-120h388v-298h-617v298h126v115q-116 -4 -247 -4l-12 82q378 0 596 19l6 -72q-125 -14 -240 -20zM704 825 h103v-546h-103v546z" />
<glyph unicode="&#xb701;" d="M624 589v-82h-246v270h239v-83h-138v-105h145zM346 605l9 -81q-82 -19 -207 -19h-41v272h228v-83h-127v-107q71 3 138 18zM320 243v121q-110 -5 -251 -5l-13 83q390 0 597 19l6 -73q-98 -11 -237 -20v-125h-102zM704 16v86h-413v-86h413zM704 181v88h103v-335h-618v335 h102v-88h413zM704 825h103v-519h-103v519z" />
<glyph unicode="&#xb705;" d="M808 826v-568h-104v568h104zM622 566v-82h-244v287h238v-82h-136v-123h142zM343 584l9 -82q-82 -18 -204 -18h-41v287h228v-82h-127v-122q65 2 135 17zM502 2q99 0 152.5 21.5t53.5 61.5t-53.5 61t-152.5 21t-152 -21t-53 -61t53 -61.5t152 -21.5zM419 344v-101 q52 4 83 4q144 0 227.5 -43t83.5 -119t-83.5 -119.5t-227.5 -43.5t-227 43.5t-83 119.5q0 94 124 136v119q-116 -4 -247 -4l-12 81q378 0 596 19l6 -72q-125 -14 -240 -20z" />
<glyph unicode="&#xb728;" d="M806 394v-84h-325v425h319v-83h-216v-258h222zM439 416l8 -83q-109 -23 -273 -23h-53v425h312v-84h-209v-257q123 3 215 22zM50 125h819v-85h-819v85z" />
<glyph unicode="&#xb729;" d="M795 559v-83h-310v315h306v-83h-201v-149h205zM443 580l9 -82q-103 -22 -272 -22h-52v315h307v-83h-202v-150q119 3 210 22zM139 140v83h624v-301h-103v218h-521zM50 396h818v-84h-818v84z" />
<glyph unicode="&#xb72c;" d="M795 537v-83h-310v330h306v-83h-201v-164h205zM443 558l9 -81q-108 -23 -272 -23h-52v330h307v-83h-202v-164q108 2 210 21zM257 210v-186h522v-84h-626v270h104zM50 369h818v-83h-818v83z" />
<glyph unicode="&#xb72f;" d="M795 562v-83h-310v312h306v-83h-201v-146h205zM443 584l9 -82q-108 -23 -272 -23h-52v312h307v-83h-202v-146q119 3 210 22zM251 154v-137h525v-83h-628v303h620v-83h-517zM50 406h818v-83h-818v83z" />
<glyph unicode="&#xb730;" d="M797 598v-81h-312v277h306v-81h-203v-115h209zM447 621l9 -81q-110 -23 -276 -23h-52v277h307v-81h-204v-115q124 3 216 23zM251 84v-73h540v-79h-642v225h515v66h-517v77h618v-216h-514zM50 453h818v-82h-818v82z" />
<glyph unicode="&#xb738;" d="M796 566v-83h-311v306h305v-83h-202v-140h208zM446 588l9 -82q-110 -23 -275 -23h-52v306h309v-83h-206v-141q116 3 215 23zM250 156v-140h418v140h-418zM148 -66v304h622v-304h-622zM50 408h817v-84h-817v84z" />
<glyph unicode="&#xb739;" d="M797 571v-83h-312v304h306v-83h-203v-138h209zM446 593l9 -82q-110 -23 -275 -23h-52v304h309v-83h-206v-139q116 3 215 23zM664 17v94h-409v-94h409zM664 192v88h102v-346h-614v346h103v-88h409zM52 421h817v-83h-817v83z" />
<glyph unicode="&#xb73b;" d="M796 555v-83h-311v312h306v-83h-203v-146h208zM446 577l9 -82q-110 -23 -275 -23h-52v312h309v-83h-206v-146q122 3 215 22zM513 253v-23q0 -82 81 -143.5t216 -79.5l-39 -81q-108 17 -189 62t-122 113q-41 -68 -122 -113t-189 -62l-38 81q134 18 215 79.5t81 143.5v23 h106zM50 400h817v-84h-817v84z" />
<glyph unicode="&#xb744;" d="M621 452v-83h-246v364h240v-83h-139v-198h145zM339 471l8 -84q-83 -18 -209 -18h-43v364h233v-83h-131v-196q76 2 142 17zM66 134l-13 85q389 -2 597 24l8 -76q-227 -35 -592 -33zM700 826h103v-903h-103v903z" />
<glyph unicode="&#xb748;" d="M803 825v-666h-103v666h103zM616 532v-82h-242v306h235v-83h-133v-141h140zM340 550l9 -82q-79 -18 -202 -18h-41v306h227v-83h-125v-140q73 4 132 17zM645 388l8 -74q-222 -34 -587 -34l-15 83q391 0 594 25zM302 24h525v-84h-628v264h103v-180z" />
<glyph unicode="&#xb74c;" d="M802 826v-475h-104v475h104zM621 603v-81h-244v268h237v-81h-135v-106h142zM344 621l8 -81q-83 -18 -207 -18h-42v268h232v-81h-131v-105q78 4 140 17zM648 477l6 -72q-226 -28 -588 -26l-13 80q399 0 595 18zM281 10h550v-79h-652v230h521v73h-523v77h625v-222h-521v-79 z" />
<glyph unicode="&#xb754;" d="M801 825v-546h-103v546h103zM625 562v-82h-244v296h236v-82h-134v-132h142zM350 579l8 -81q-84 -18 -210 -18h-42v296h233v-82h-131v-132q79 4 142 17zM647 427l7 -72q-218 -33 -585 -35l-12 82q380 0 590 25zM701 16v140h-414v-140h414zM186 238h616v-304h-616v304z" />
<glyph unicode="&#xb755;" d="M625 577v-82h-244v288h236v-83h-134v-123h142zM350 594l8 -81q-84 -18 -210 -18h-42v288h233v-83h-131v-123q79 4 142 17zM647 450l7 -72q-218 -33 -585 -35l-12 82q380 0 590 25zM699 17v91h-411v-91h411zM699 189v89h102v-344h-616v344h103v-89h411zM698 826h103v-510 h-103v510z" />
<glyph unicode="&#xb760;" d="M189 651v-413q83 4 148 18l9 -84q-91 -20 -216 -20h-43v583h244v-84h-142zM479 651v-414q98 1 180 19l8 -84q-87 -20 -243 -20h-48v583h258v-84h-155zM705 826h104v-904h-104v904z" />
<glyph unicode="&#xb764;" d="M808 826v-654h-103v654h103zM651 423l9 -82q-87 -18 -239 -18h-47v423h251v-83h-149v-258q101 3 175 18zM335 423l8 -83q-87 -17 -216 -17h-43v423h244v-83h-143v-257q83 4 150 17zM314 24h523v-84h-626v291h103v-207z" />
<glyph unicode="&#xb768;" d="M809 827v-453h-103v453h103zM654 512l9 -81q-80 -17 -242 -17h-47v358h253v-81h-151v-196q106 1 178 17zM335 513l8 -81q-92 -18 -216 -18h-43v358h244v-81h-143v-195q83 4 150 17zM299 15h538v-82h-640v241h510v77h-512v81h614v-234h-510v-83z" />
<glyph unicode="&#xb770;" d="M651 472l9 -83q-92 -19 -239 -19h-47v391h252v-83h-150v-224q101 3 175 18zM335 471l8 -84q-92 -18 -215 -18h-44v392h244v-83h-143v-224q73 2 150 17zM305 186v-170h403v170h-403zM203 -66v334h606v-334h-606zM706 826h103v-510h-103v510z" />
<glyph unicode="&#xb771;" d="M651 482l9 -82q-87 -18 -239 -18h-47v383h252v-83h-150v-218q101 3 175 18zM340 481l9 -83q-89 -18 -221 -18h-44v385h244v-83h-143v-219q79 2 155 18zM705 17v102h-400v-102h400zM705 199v103h102v-368h-604v368h102v-103h400zM706 826h103v-484h-103v484z" />
<glyph unicode="&#xb773;" d="M809 826v-605h-103v605h103zM651 450l9 -82q-92 -19 -239 -19h-47v408h252v-83h-150v-242q101 3 175 18zM335 448l8 -83q-87 -17 -216 -17h-43v409h244v-83h-143v-243q83 4 150 17zM548 281v-41q0 -82 83.5 -148t214.5 -85l-38 -81q-108 17 -190.5 65.5t-123.5 119.5 q-41 -70 -123 -119t-189 -66l-39 81q130 19 214.5 86t84.5 147v41h106z" />
<glyph unicode="&#xb775;" d="M809 826v-541h-103v541h103zM651 453l9 -83q-92 -19 -238 -19h-47v400h251v-83h-153v-233q101 2 178 18zM335 450l9 -83q-88 -18 -216 -18h-44v402h245v-83h-148v-234q80 2 154 16zM506 2q97 0 150.5 24.5t53.5 69.5q0 44 -53.5 68.5t-150.5 24.5q-98 0 -151.5 -24.5 t-53.5 -68.5q0 -45 53.5 -69.5t151.5 -24.5zM506 270q143 0 225.5 -46.5t82.5 -127.5q0 -82 -82.5 -128t-225.5 -46q-144 0 -226 46t-82 128t82 128t226 46z" />
<glyph unicode="&#xb77c;" d="M189 410v-189q231 2 388 30l11 -84q-172 -31 -427 -31h-74v357h309v169h-311v84h413v-336h-309zM891 475v-86h-139v-467h-104v906h104v-353h139z" />
<glyph unicode="&#xb77d;" d="M576 431l11 -84q-164 -29 -427 -29h-73v272h306v102h-308v83h410v-263h-307v-110q240 2 388 29zM162 149v83h594v-310h-103v227h-491zM884 601v-85h-128v-239h-103v549h103v-225h128z" />
<glyph unicode="&#xb780;" d="M576 408l11 -84q-159 -28 -427 -28h-73v281h306v109h-308v83h410v-270h-307v-119q246 2 388 28zM293 212v-188h500v-84h-604v272h104zM756 556h128v-85h-128v-311h-103v666h103v-270z" />
<glyph unicode="&#xb784;" d="M578 486l9 -80q-161 -26 -428 -26h-72v244h306v81h-308v79h410v-234h-307v-90q243 2 390 26zM281 90v-79h509v-80h-611v233h475v73h-477v78h579v-225h-475zM756 637h128v-85h-128v-199h-103v473h103v-189z" />
<glyph unicode="&#xb78c;" d="M576 441l11 -84q-164 -29 -427 -29h-73v270h306v97h-308v84h410v-260h-307v-107q240 2 388 29zM280 165v-149h375v149h-375zM179 -66v312h577v-312h-577zM884 602v-85h-128v-229h-103v537h103v-223h128z" />
<glyph unicode="&#xb78d;" d="M576 457l11 -84q-164 -29 -427 -29h-73v264h306v92h-308v83h410v-254h-307v-101q240 2 388 29zM654 17v94h-373v-94h373zM654 192v97h102v-355h-577v355h102v-97h373zM884 617v-85h-128v-205h-103v498h103v-208h128z" />
<glyph unicode="&#xb78f;" d="M87 581h306v106h-308v83h410v-267h-307v-112q240 2 388 29l11 -84q-164 -29 -427 -29h-73v274zM528 259v-23q0 -84 80.5 -148t212.5 -83l-39 -79q-106 17 -185.5 62t-120.5 113q-85 -140 -305 -175l-39 79q131 19 212 83.5t81 147.5v23h103zM756 587h128v-87h-128v-281 h-103v607h103v-239z" />
<glyph unicode="&#xb790;" d="M393 603v96h-308v83h410v-257h-307v-102q248 1 388 29l11 -84q-155 -29 -427 -29h-73v264h306zM689 267v-32q0 -74 45 -136t130 -90l-52 -75q-124 43 -175 163q-49 -123 -165 -172q-120 46 -167 170q-53 -118 -173 -161l-51 75q83 30 128.5 93t45.5 133v32h100v-32 q0 -61 29 -117t86 -93q58 39 88 96.5t30 113.5v32h101zM756 611h128v-85h-128v-226h-103v525h103v-214z" />
<glyph unicode="&#xb791;" d="M576 440l11 -84q-164 -29 -427 -29h-73v265h306v97h-308v83h410v-258h-307v-103q240 2 388 29zM464 2q96 0 148 23t52 66t-52 65.5t-148 22.5t-148 -22.5t-52 -65.5t52 -66t148 -23zM464 259q141 0 221 -44.5t80 -123.5t-80 -123.5t-221 -44.5t-221 44.5t-80 123.5 t80 123.5t221 44.5zM756 607h128v-85h-128v-239h-103v544h103v-220z" />
<glyph unicode="&#xb792;" d="M87 603h308v93h-310v83h412v-254h-309v-99q240 2 388 29l11 -84q-164 -29 -427 -29h-73v261zM769 178h-240q14 -61 90 -110.5t187 -64.5l-37 -79q-103 16 -181 59.5t-117 106.5q-38 -63 -116.5 -106t-182.5 -59l-37 79q114 15 190 63.5t89 110.5h-241v82h596v-82z M756 610h128v-84h-128v-220h-103v519h103v-215z" />
<glyph unicode="&#xb796;" d="M576 450l11 -84q-164 -29 -427 -29h-73v264h306v95h-308v83h410v-256h-307v-102q239 2 388 29zM392 183v-168h168v168h-168zM662 183v-168h126v-82h-622v82h124v168h-116v81h603v-81h-115zM756 613h128v-85h-128v-218h-103v515h103v-212z" />
<glyph unicode="&#xb797;" d="M87 631h303v79h-305v80h410v-233h-304v-88q242 2 387 26l9 -80q-161 -26 -428 -26h-72v242zM471 -7q154 0 154 52q0 53 -154 53q-155 0 -155 -53q0 -52 155 -52zM471 169q121 0 187 -32t66 -92t-66 -91.5t-187 -31.5q-122 0 -188 31.5t-66 91.5t66 92t188 32zM523 362 v-78h264v-78h-633v78h265v78h104zM756 629h128v-85h-128v-212h-103v494h103v-197z" />
<glyph unicode="&#xb798;" d="M178 401v-184q156 2 285 23l9 -84q-138 -24 -332 -24h-61v352h238v165h-240v84h339v-332h-238zM723 826h98v-902h-98v469h-107v-425h-97v840h97v-331h107v349z" />
<glyph unicode="&#xb799;" d="M473 411l9 -82q-125 -24 -332 -24h-61v270h240v105h-242v82h342v-263h-240v-112q167 2 284 24zM202 137v83h613v-298h-103v215h-510zM717 826h98v-564h-98v246h-100v-239h-96v540h96v-218h100v235z" />
<glyph unicode="&#xb79c;" d="M617 478v-301h-96v633h96v-248h100v265h98v-674h-98v325h-100zM473 390l9 -83q-131 -24 -332 -24h-61v275h240v111h-242v82h342v-269h-240v-116q167 2 284 24zM322 24h518v-84h-622v276h104v-192z" />
<glyph unicode="&#xb7a0;" d="M617 547v-192h-96v455h96v-181h100v197h98v-480h-98v201h-100zM473 480l9 -81q-130 -22 -332 -22h-61v244h240v77h-242v80h342v-234h-240v-85q174 2 284 21zM316 11h529v-80h-631v231h500v69h-502v78h603v-221h-499v-77z" />
<glyph unicode="&#xb7a8;" d="M473 431l9 -82q-125 -24 -332 -24h-61v265h240v98h-242v81h342v-256h-240v-106q167 2 284 24zM316 167v-151h399v151h-399zM214 -66v315h601v-315h-601zM717 827h98v-538h-98v232h-100v-221h-96v509h96v-205h100v223z" />
<glyph unicode="&#xb7a9;" d="M473 459l9 -82q-125 -24 -332 -24h-61v255h240v86h-242v82h342v-245h-240v-96q167 2 284 24zM714 17v96h-398v-96h398zM714 194v90h101v-350h-601v350h102v-90h398zM717 826h98v-502h-98v211h-100v-204h-96v479h96v-192h100v208z" />
<glyph unicode="&#xb7ab;" d="M617 514v-223h-96v518h96v-211h100v228h98v-611h-98v299h-100zM472 409l10 -82q-134 -26 -332 -26h-61v272h240v104h-242v81h342v-262h-240v-112q168 2 283 25zM561 255v-20q0 -81 84 -146t214 -83l-40 -80q-105 17 -185.5 64t-122.5 115q-42 -68 -123.5 -115t-186.5 -64 l-40 80q130 18 214 83t84 146v20h102z" />
<glyph unicode="&#xb7ac;" d="M617 516v-219h-96v512h96v-210h100v227h98v-535h-98v225h-100zM89 588h240v96h-242v82h342v-254h-240v-103q167 2 284 24l9 -82q-125 -24 -332 -24h-61v261zM711 259v-31q0 -72 45.5 -131t130.5 -87l-50 -76q-126 43 -178 162q-48 -122 -165 -169q-119 44 -166 165 q-55 -116 -175 -158l-50 75q83 29 129.5 90t46.5 128v32h99v-31q0 -60 29 -114.5t86 -89.5q57 38 87 94t30 110v31h101z" />
<glyph unicode="&#xb7ad;" d="M617 511v-209h-96v507h96v-215h100v232h98v-555h-98v240h-100zM473 426l9 -82q-125 -24 -332 -24h-61v263h240v96h-242v82h342v-254h-240v-105q167 2 284 24zM514 3q96 0 149.5 22.5t53.5 64.5t-53.5 64.5t-149.5 22.5t-149.5 -22.5t-53.5 -64.5t53.5 -64.5t149.5 -22.5z M514 257q141 0 223.5 -44.5t82.5 -122.5t-82.5 -122.5t-223.5 -44.5t-223.5 44.5t-82.5 122.5t82.5 122.5t223.5 44.5z" />
<glyph unicode="&#xb7b4;" d="M189 410v-189q231 2 388 30l11 -84q-172 -31 -427 -31h-74v357h309v169h-311v84h413v-336h-309zM885 514h-133v-176h133v-85h-133v-331h-104v906h104v-229h133v-85z" />
<glyph unicode="&#xb7b5;" d="M576 431l11 -84q-164 -29 -427 -29h-73v272h306v102h-308v83h410v-263h-307v-110q240 2 388 29zM162 149v83h594v-310h-103v227h-491zM883 606h-127v-106h127v-85h-127v-138h-103v547h103v-134h127v-84z" />
<glyph unicode="&#xb7b8;" d="M576 406l11 -84q-164 -29 -427 -29h-73v283h306v110h-308v83h410v-271h-307v-121q240 2 388 29zM293 212v-188h500v-84h-604v272h104zM884 579h-128v-128h128v-85h-128v-206h-103v666h103v-162h128v-85z" />
<glyph unicode="&#xb7c7;" d="M87 581h306v106h-308v83h410v-267h-307v-112q240 2 388 29l11 -84q-164 -29 -427 -29h-73v274zM528 260v-23q0 -84 81 -147.5t212 -82.5l-39 -80q-105 17 -185 62.5t-121 113.5q-41 -68 -120.5 -113.5t-184.5 -62.5l-39 80q131 19 212 83t81 147v23h103zM884 589h-128 v-111h128v-85h-128v-174h-103v607h103v-152h128v-85z" />
<glyph unicode="&#xb7c9;" d="M576 440l11 -84q-164 -29 -427 -29h-73v265h306v97h-308v83h410v-258h-307v-103q240 2 388 29zM464 2q96 0 148 23t52 66t-52 65.5t-148 22.5t-148 -22.5t-52 -65.5t52 -66t148 -23zM464 259q141 0 221 -44.5t80 -123.5t-80 -123.5t-221 -44.5t-221 44.5t-80 123.5 t80 123.5t221 44.5zM884 609h-128v-105h128v-85h-128v-139h-103v547h103v-133h128v-85z" />
<glyph unicode="&#xb7ec;" d="M184 419v-199q221 2 371 27l9 -84q-164 -28 -410 -28h-71v367h302v161h-304v83h405v-327h-302zM696 828h103v-906h-103v482h-158v85h158v339z" />
<glyph unicode="&#xb7ed;" d="M558 418l8 -84q-154 -24 -408 -24h-71v275h300v105h-302v83h404v-266h-301v-113q222 0 370 24zM188 142v83h611v-304h-103v221h-508zM696 826h103v-554h-103v257h-156v83h156v214z" />
<glyph unicode="&#xb7f0;" d="M696 162v349h-156v87h156v228h103v-664h-103zM556 389l9 -84q-150 -24 -408 -24h-71v287h300v114h-302v83h405v-276h-301v-124q233 2 368 24zM312 24h512v-84h-615v272h103v-188z" />
<glyph unicode="&#xb7f4;" d="M696 353v216h-156v83h156v174h103v-473h-103zM557 484l9 -80q-152 -24 -409 -24h-70v243h300v82h-302v79h404v-235h-300v-89q223 0 368 24zM308 12h523v-81h-624v231h490v73h-492v78h594v-225h-491v-76z" />
<glyph unicode="&#xb7fc;" d="M558 435l8 -84q-161 -25 -408 -25h-71v271h300v101h-302v84h404v-263h-301v-109q226 2 370 25zM304 168v-152h394v152h-394zM203 -66v316h596v-316h-596zM696 825h103v-530h-103v252h-156v83h156v195z" />
<glyph unicode="&#xb7fd;" d="M558 457l8 -84q-153 -25 -408 -25h-71v263h300v96h-302v84h404v-258h-301v-101q224 0 370 25zM697 17v94h-391v-94h391zM697 192v94h102v-352h-595v352h102v-94h391zM696 826h103v-499h-103v234h-156v83h156v182z" />
<glyph unicode="&#xb7ff;" d="M696 206v331h-156v83h156v206h103v-620h-103zM87 581h300v110h-302v83h404v-271h-301v-115q211 1 367 30l11 -83q-161 -31 -408 -31h-71v277zM553 260v-25q0 -84 82 -147.5t215 -82.5l-39 -79q-106 17 -187 62.5t-122 113.5q-42 -68 -123 -113.5t-187 -62.5l-39 79 q133 19 215 82.5t82 147.5v25h103z" />
<glyph unicode="&#xb800;" d="M696 298v255h-156v83h156v189h103v-527h-103zM87 603h300v99h-302v83h404v-260h-301v-107q226 2 370 25l8 -84q-161 -25 -408 -25h-71v269zM702 267v-32q0 -74 45.5 -136t130.5 -90l-51 -75q-126 43 -177 164q-50 -125 -165 -172q-119 45 -166 169q-52 -116 -174 -161 l-51 75q83 30 129.5 93t46.5 133v32h100v-32q0 -62 28.5 -117.5t85.5 -91.5q57 38 87 95.5t30 113.5v32h101z" />
<glyph unicode="&#xb801;" d="M696 271v269h-156v84h156v201h103v-554h-103zM558 424l8 -84q-154 -24 -408 -24h-71v274h300v102h-302v84h404v-264h-301v-112q222 0 370 24zM500 1q96 0 148.5 23.5t52.5 66.5t-52.5 66.5t-148.5 23.5q-97 0 -149.5 -23.5t-52.5 -66.5t52.5 -66.5t149.5 -23.5zM500 260 q142 0 223 -44.5t81 -124.5t-81 -124.5t-223 -44.5q-143 0 -224 44.5t-81 124.5t81 124.5t224 44.5z" />
<glyph unicode="&#xb807;" d="M696 334v242h-156v83h156v167h103v-492h-103zM556 491l9 -80q-153 -27 -408 -27h-71v241h300v83h-302v79h405v-236h-301v-87q224 2 368 27zM501 -6q155 0 155 55t-155 55t-155 -55t155 -55zM501 176q122 0 188 -32.5t66 -94.5t-66 -94.5t-188 -32.5t-188.5 32.5 t-66.5 94.5t66.5 94.5t188.5 32.5zM552 287h264v-78h-632v78h265v76h103v-76z" />
<glyph unicode="&#xb808;" d="M178 403v-178q158 2 290 24l9 -85q-139 -24 -336 -24h-62v346h220v162h-222v83h321v-328h-220zM540 510v296h96v-838h-96v457h-102v85h102zM723 826h98v-903h-98v903z" />
<glyph unicode="&#xb809;" d="M539 269v250h-99v84h99v206h97v-540h-97zM471 407l10 -82q-131 -24 -331 -24h-61v272h218v104h-220v81h320v-262h-218v-112q170 2 282 23zM207 139v83h608v-300h-103v217h-505zM717 826h98v-563h-98v563z" />
<glyph unicode="&#xb80c;" d="M815 826v-679h-98v679h98zM539 169v333h-98v84h98v224h97v-641h-97zM471 386l10 -82q-131 -24 -331 -24h-61v279h218v115h-220v81h320v-272h-218v-121q166 2 282 24zM322 24h518v-84h-622v274h104v-190z" />
<glyph unicode="&#xb810;" d="M815 826v-478h-98v478h98zM539 356v214h-99v82h99v159h97v-455h-97zM469 478l9 -80q-121 -24 -329 -24h-60v246h218v79h-220v81h320v-237h-218v-88q164 2 280 23zM316 11h529v-80h-631v230h500v72h-502v78h603v-224h-499v-76z" />
<glyph unicode="&#xb818;" d="M539 289v246h-99v84h99v190h97v-520h-97zM472 427l9 -82q-128 -23 -331 -23h-61v264h218v99h-220v82h320v-258h-218v-104q168 2 283 22zM316 161v-145h399v145h-399zM214 -66v309h601v-309h-601zM717 827h98v-545h-98v545z" />
<glyph unicode="&#xb819;" d="M539 326v220h-99v84h99v176h97v-480h-97zM466 444l10 -81q-125 -23 -327 -23h-60v256h218v90h-220v82h320v-249h-218v-97q164 2 277 22zM714 17v95h-396v-95h396zM714 193v89h101v-348h-599v348h102v-89h396zM717 827h98v-507h-98v507z" />
<glyph unicode="&#xb81b;" d="M815 826v-616h-98v616h98zM539 285v238h-99v84h99v200h97v-522h-97zM471 406l10 -81q-130 -25 -331 -25h-61v273h218v104h-220v82h320v-263h-218v-113q163 2 282 23zM562 252v-20q0 -80 84 -144t213 -83l-39 -79q-105 17 -186 63t-123 114q-42 -68 -123.5 -114 t-186.5 -63l-40 79q130 19 214 83t84 144v20h103z" />
</font>
</defs>
</svg>
